Agar Tum Na Hote 1983 1.36GB AVI ~ Drama | Family ~ [RdY]

Size 1.465 GB   0 seeders     Added 2011-06-28 17:03:05

Stream torrent
Starting‥ You need BitLord! Get it from BitLord.com
10
To download or stream you need BitLord. Visit them at BitLord.com
Complete name                    : Agar Tum Na Hote 1983 1.36GB AVI ~ Drama | Family ~ [RdY]
Ripper                           : Rahul
Format                           : AVI
Format/Info                      : Audio Video Interleave
File size                        : 1.36 GiB
Duration                         : 2h 45mn
Overall bit rate                 : 1 184 Kbps
Writing application              : VirtualDubMod 1.5.10.3 | 

Video
ID                               : 0
Format                           : MPEG-4 Visual
Format profile                   : Advanced Simple@L5
Format settings, BVOP            : 2
Format settings, QPel            : Yes
Format settings, GMC             : No warppoints
Format settings, Matrix          : Default (MPEG)
Codec ID                         : XVID
Codec ID/Hint                    : XviD
Duration                         : 2h 45mn
Bit rate                         : 951 Kbps
Width                            : 640 pixels
Height                           : 480 pixels
Display aspect ratio             : 4:3
Frame rate                       : 23.976 fps
Color space                      : YUV
Chroma subsampling               : 4.2.0
Bit depth                        : 8 bits
Scan type                        : Interlaced
Scan order                       : Bottom Field First
Compression mode                 : Lossy
Bits/(Pixel*Frame)               : 0.129
Stream size                      : 1.10 GiB (80%)
Writing library                  : XviD 1.2.1 (UTC 2008-12-04)

Audio
ID                               : 1
Format                           : AC-3
Format/Info                      : Audio Coding 3
Mode extension                   : CM (complete main)
Codec ID                         : 2000
Duration                         : 2h 45mn
Bit rate mode                    : Constant
Bit rate                         : 224 Kbps
Channel(s)                       : 2 channels
Channel positions                : Front: L R
Sampling rate                    : 48.0 KHz
Bit depth                        : 16 bits
Compression mode                 : Lossy
Stream size                      : 264 MiB (19%)
Alignment                        : Split accross interleaves
Interleave, duration             : 42 ms (1.00 video frame)
Interleave, preload duration     : 500 ms


Photographer Raj Bedi meets with attractive Radha, both fall in love, and get married. Shortly after the marriage, Raj has an accident and is hospitalized. He does recover, but has no sensation in his legs and must be confined to a wheelchair. The cost of his treatment, in addition to the loss of his job, leads Radha to take up employment as a Governess to a small child, the only daughter of wealthy industrialist, Ashok Mehra. Raj is quite happy at this arrangement and looks forward to his treatment locally, and subsequently abroad. What he does not know that Ashok's deceased wife resembles Radha, that his daughter, Mini, thinks that Mom has finally returned home; and that this was prime reason that Radha was ever hired by Mehra and his associates. Will Radha take to the comfortable life as the wealthy Mrs. Mehra, in addition to getting a cute little daughter for her own self?



Color
C

Release Date
November 4, 1983

Genre
Family Drama

Producer
Kalidas
Rajeev Kumar (3)
Vimal
Babu
Yogiraj

Executive Producer / Co-Producer
Anil

Director
Lekh Tandon

Star Cast
Rajesh Khanna...... Ashok Mehra
Rekha...... Nina (Mrs. Mehra)/Radha (Mrs. Bedi)
Raj Babbar...... Raj Bedi
Madan Puri...... Shakur Uncle
Asrani...... Chandu (as Asrani)
Sudhir Dalvi...... Doctor
Raj Mehra
Baby Shabana...... Mini (Ashok's daughter)
Yunus Parvez...... Employer
Dulari...... Matron at the Orphanage
Sunil Dhawan
Gulshan Bawra...... special appearance
Sunder...... Sunder Uncle
Sami...... Guest Appearance

Cassettes and CD's on
Saregama-HMV

Singers
Kishore Kumar
Lata Mangeshkar
Asha Bhosle
Shailendra Singh
Rekha Bhardwaj

Lyricist
Gulshan Bawra

Music Director
R D Burman

Choreography
Kamal (3)

Sound
Kaushik
Agar Tum Na Hote 1983 1.36GB AVI ~ Drama Family ~ [RdY].avi 1.465 GB
Gathering some info...

Register and log in Isohunt and see no captcha anymore!

4000 symbols left
Hash 865353d1d3c70a9fd414c97900c3ec3f18422373