imdb
rating

4.9
The Haunting

The Haunting (1999)

Fantasy, Horror, Mystery, Thriller

Full description
quality   cam dvdr dvdrip hd fullhd

Michael Isley - Never Lose Your Soul HD 720p By Haunting Summer

Size 59.407 MB   0 seeders     Added 2011-06-29 03:04:01

Stream torrent
Starting‥ You need BitLord! Get it from BitLord.com
To download or stream you need BitLord. Visit them at BitLord.com
============== Michael isley - Never Lose Your Soul HD ========================== Format : MPEG-4 Format profile : Base Media Codec ID : isom File size : 56.7 MiB Duration : 3mn 42s Overall bit rate : 2 140 Kbps Video ID : 1 Format : MPEG-4 Visual Format profile : Simple@L1 Format settings, BVOP : No Format settings, QPel : No Format settings, GMC : No warppoints Format settings, Matrix : Default (H.263) Codec ID : 20 Duration : 3mn 41s Bit rate mode : Variable Bit rate : 2 075 Kbps Width : 720 pixels Height : 576 pixels Display aspect ratio : 16:9 Frame rate mode : Constant Frame rate : 29.970 fps Standard : PAL Color space : YUV Chroma subsampling : 4:2:0 Bit depth : 8 bits Scan type : Progressive Bits/(Pixel*Frame) : 0.167 Stream size : 54.8 MiB (97%) Writing library : Lavc52.37.0 Audio ID : 2 Format : AAC Format/Info : Advanced Audio Codec Format version : Version 4 Format profile : LC Format settings, SBR : No Codec ID : 40 Duration : 3mn 42s Bit rate mode : Variable Bit rate : 63.6 Kbps Channel(s) : 2 channels Channel positions : Front: L R Sampling rate : 44.1 KHz Stream size : 1.68 MiB (3%) ============================= SCREEN SHOTS ===================================== http://bayimg.com/CAIPFAAdN http://bayimg.com/cAipgAaDN http://bayimg.com/CAipHaADN ============================ FOLLOW ME ON TWEETER AND FACEBOOK ================= http :///#!/ haunting_summer http: // www. facebook. com/ pages/ HaUnTiNgSuMMeR-ToRrEnTs/ 192812490771363 ================================================================================= --------------- PLZ RATE +/- THE QUALITY N COMMENT IF POSSIBLE -----------------
Never Lose Your Soul - Michael Isley HD.mp4 59.407 MB
Gathering some info...

Register and log in Isohunt and see no captcha anymore!

4000 symbols left
Hash 6c492937326c244df742faa96739d74bec2300d3

Related torrents for "Michael Isley - Never Lose Your Soul HD 720p By Haunting Summer"

Torrent search:

hd