Universal Squadrons 2010 DVDrip XviD NoGRP torrent [torrent family net]

Size 760.807 MB   0 seeders     Added 2011-06-29 14:53:20

Stream torrent
Starting‚Ä• You need BitLord! Get it from 1BitLord.com
To download or stream you need BitLord. Visit them at BitLord.com
http://www.imdb.com/title/tt1535606/\r\n\r\nGeneral\r\nComplete name : Universal.Squadrons.2010.DVDrip.XviD-NoGRP.avi\r\nFormat : AVI\r\nFormat/Info : Audio Video Interleave\r\nFile size : 726 MiB\r\nDuration : 1h 19mn\r\nOverall bit rate : 1 280 Kbps\r\nMovie name : UNIVERSAL_SQUADRONS.Title1.DVDRip\r\nWriting application : Lavf52.78.4\r\nOriginal source form/Name : UNIVERSAL_SQUADRONS\r\n\r\nVideo\r\nID : 0\r\nFormat : AVC\r\nFormat/Info : Advanced Video Codec\r\nCodec ID : H264\r\nDuration : 1h 19mn\r\nBit rate : 1 077 Kbps\r\nWidth : 720 pixels\r\nHeight : 406 pixels\r\nDisplay aspect ratio : 16:9\r\nFrame rate : 25.000 fps\r\nBits/(Pixel*Frame) : 0.147\r\nStream size : 611 MiB (84%)\r\n\r\nAudio\r\nID : 1\r\nFormat : AC-3\r\nFormat/Info : Audio Coding 3\r\nFormat_Settings_ModeExtension : CM (complete main)\r\nCodec ID : 2000\r\nDuration : 1h 19mn\r\nBit rate mode : Constant\r\nBit rate : 192 Kbps\r\nChannel(s) : 2 channels\r\nChannel positions : Front: L R\r\nSampling rate : 48.0 KHz\r\nStream size : 109 MiB (15%)\r\nAlignment : Aligned on interleaves\r\nInterleave, duration : 32 ms (0.80 video frame)\r\nInterleave, preload duration : 32 ms
Universal.Squadrons.2010.DVDrip.XviD-NoGRP.avi 760.807 MB
Gathering some info...

Register and log in Isohunt and see no captcha anymore!

4000 symbols left
Hash 3A2F94C9DE3A36CADD9FD3C10EF78EB689B3030A