imdb
rating

6.2
Scream 4

Scream 4 (2011)

Horror, Mystery

Full description

Scream 4 2011 TS Rip XviD 400MB DAYN

Size 442.13 MB   0 seeders     Added 2011-06-29 15:01:15

Stream torrent
Starting‥ You need BitLord! Get it from BitLord.com
To download or stream you need BitLord. Visit them at BitLord.com
Format profile : Base Media / Version 2\r\n\r\nCodec ID : mp42\r\n\r\nFile size : 399 MiB\r\n\r\nDuration : 1h 43mn\r\n\r\nOverall bit rate : 540 Kbps\r\n\r\n\r\n\r\n\r\n\r\nVideo\r\n\r\nID : 1\r\n\r\nFormat : AVC\r\n\r\nFormat/Info : Advanced Video Codec\r\n\r\nFormat profile : Main@L3.0\r\n\r\nFormat settings, CABAC : Yes\r\n\r\nFormat settings, ReFrames : 4 frames\r\n\r\nFormat settings, GOP : M=1, N=62\r\n\r\nCodec ID : avc1\r\n\r\nCodec ID/Info : Advanced Video Coding\r\n\r\nDuration : 1h 43mn\r\n\r\nBit rate mode : Variable\r\n\r\nBit rate : 377 Kbps\r\n\r\nWidth : 720 pixels\r\n\r\nHeight : 306 pixels\r\n\r\nDisplay aspect ratio : 2.35:1\r\n\r\nFrame rate mode : Constant\r\n\r\nFrame rate : 25.000 fps\r\n\r\nColor space : YUV\r\n\r\nChroma subsampling : 4:2:0\r\n\r\nBit depth : 8 bits\r\n\r\nScan type : Progressive\r\n\r\nBits/(Pixel*Frame) : 0.068\r\n\r\nStream size : 278 MiB (70%)\r\n\r\nWriting library : x264 core 112\r\n\r\n\r\n\r\nAudio\r\n\r\nID : 2\r\n\r\nFormat : AAC\r\n\r\nFormat/Info : Advanced Audio Codec\r\n\r\nFormat profile : LC\r\n\r\nCodec ID : 40\r\n\r\nDuration : 1h 43mn\r\n\r\nBit rate mode : Variable\r\n\r\nBit rate : 160 Kbps\r\n\r\nMaximum bit rate : 241 Kbps\r\n\r\nChannel(s) : 2 channels\r\n\r\nChannel positions : Front: L R\r\n\r\nSampling rate : 44.1 KHz\r\n\r\nCompression mode : Lossy\r\n\r\nStream size : 118 MiB (30%)\r\n\r\nEncoded date : UTC 2011-05-08 13:57:55\r\n\r\n\r\nLooking for fast download speeds come join http://dream-torrents.com for all the latest releases, with friendly staff online radio and games and much much more.
sample.mp4 23.463 MB
Scream 4 [2011] TS Rip XviD 400MB DAYN.mp4 418.667 MB
Gathering some info...

Register and log in Isohunt and see no captcha anymore!

4000 symbols left
Hash 1F3E7E2FF3910DD08FEA2CFC6F8385A4FB46738E

Related torrents for "Scream 4 2011 TS Rip XviD 400MB DAYN"

Torrent search:

telesync 2011