imdb
rating

6.8
Insidious

Insidious (2010)

Horror, Thriller

Full description

Insidious DVDRiP XviD ESPiSE

Size 735.097 MB   0 seeders     Added 2011-06-29 15:04:50

Stream torrent
Starting‥ You need BitLord! Get it from BitLord.com
To download or stream you need BitLord. Visit them at BitLord.com
Format                           : AVI\r\nFormat/Info                      : Audio Video Interleave\r\nFormat profile                   : OpenDML\r\nFile size                        : (100%)\r\nDuration                         : 1h 34mn\r\nOverall bit rate                 : 2 058 Kbps\r\nWriting application              : VirtualDubMod 1.5.10.2 (build 2542/release)\r\nWriting library                  : VirtualDubMod build 2542/release\r\nOriginal source form             : MAX TORRENTZ\r\nCopyright                        : SIGISMUNT\r\n\r\nVideo\r\nID                               : 0\r\nFormat                           : MPEG-4 Visual\r\nFormat profile                   : AdvancedSimple@L5\r\nFormat settings, BVOP            : Yes\r\nFormat settings, QPel            : No\r\nFormat settings, GMC             : No warppoints\r\nFormat settings, Matrix          : Default (H.263)\r\nMuxing mode                      : Packed bitstream\r\nCodec ID                         : XVID\r\nCodec ID/Hint                    : XviD\r\nDuration                         : 1h 34mn\r\nBit rate                         : 1 862 Kbps\r\nWidth                            : 720 pixels\r\nHeight                           : 400 pixels\r\nDisplay aspect ratio             : 16:9\r\nFrame rate                       : 25.000 fps\r\nResolution                       : 24 bits\r\nColorimetry                      : 4:2:0\r\nScan type                        : Progressive\r\nBits/(Pixel*Frame)               : 0.259\r\nStream size                      : 720 GiB (90%)\r\nWriting library                  : XviD 1.2.1 (UTC 2008-12-04)\r\n\r\nAudio\r\nID                               : 1\r\nFormat                           : MPEG Audio\r\nFormat version                   : Version 1\r\nFormat profile                   : Layer 3\r\nCodec ID                         : 55\r\nCodec ID/Hint                    : MP3\r\nDuration                         : 1h 34mn\r\nBit rate mode                    : Constant\r\nBit rate                         : 192 Kbps\r\nChannel(s)                       : 2 channels\r\nSampling rate                    : 44.1 KHz\r\nResolution                       : 16 bits\r\nStream size                      : 130 MiB (10%)\r\nAlignment                        : Aligned on interleaves\r\nInterleave, duration             : 449 ms (11.22 video frames)\r\nInterleave, preload duration     : 208 ms\r\nWriting library                  : LAME3.98.9
Insidious.DVDRiP XviD_ESPiSE.avi 735.097 MB
Gathering some info...

Register and log in Isohunt and see no captcha anymore!

4000 symbols left
Hash 72170F0086F364EC3F361A60349B732682AA3B2B

Related torrents for "Insidious DVDRiP XviD ESPiSE"

Torrent search:

dvdrip