imdb
rating

3.2
Bloodlust Zombies

Bloodlust Zombies (2011)

Comedy, Horror

Full description
quality   screener dvdrip

Bloodlust Zombies 2011 DVDSCR XviD SiC torrent [superseeds org]

Size 741.004 MB   0 seeders     Added 2011-06-29 15:06:16

Stream torrent
Starting‥ You need BitLord! Get it from 1BitLord.com
To download or stream you need BitLord. Visit them at BitLord.com
http://superseeds.org (All New Torrents Fast Speeds)\r\n\r\nBloodlust.Zombies.2011.DVDSCR.XviD-SiC\r\n\r\n\r\nGeneral Info\r\n\r\nIMDB Link:\r\nhttp://www.imdb.com/title/tt1904850/\r\n\r\nDescription:\r\nA military weapons manufacturer creates a chemical weapon that causes victims to become blood-lusting killers. A lab accident causes the building to go into lock-down and the employees are trapped inside with the crazed killers.\r\n\r\nComplete name: Bloodlust.Zombies.2011.DVDSCR.XviD-SiC.avi\r\nFormat : AVI\r\nFormat/Info: Audio Video Interleave\r\nFile size: 700 MiB\r\nDuration : 1h 16mn\r\nOverall bit rate : 1 287 Kbps\r\nWriting application: VirtualDubMod 1.5.4.1 (build 2178/release)\r\nWriting library: VirtualDubMod build 2178/release\r\n\r\nVideo\r\nID : 0\r\nFormat : MPEG-4 Visual\r\nFormat profile : Advanced Simple@L5\r\nFormat settings, BVOP: 1\r\nFormat settings, QPel: No\r\nFormat settings, GMC : No warppoints\r\nFormat settings, Matrix: Custom\r\nCodec ID : XVID\r\nCodec ID/Hint: XviD\r\nDuration : 1h 16mn\r\nBit rate : 1 169 Kbps\r\nWidth: 720 pixels\r\nHeight : 416 pixels\r\nDisplay aspect ratio : 16:9\r\nFrame rate : 23.976 fps\r\nColor space: YUV\r\nChroma subsampling : 4:2:0\r\nBit depth: 8 bits\r\nScan type: Progressive\r\nCompression mode : Lossy\r\nBits/(Pixel*Frame) : 0.163\r\nStream size: 636 MiB (91%)\r\nWriting library: XviD 63\r\n\r\nAudio\r\nID : 1\r\nFormat : MPEG Audio\r\nFormat version : Version 1\r\nFormat profile : Layer 3\r\nMode : Joint stereo\r\nMode extension : MS Stereo\r\nCodec ID : 55\r\nCodec ID/Hint: MP3\r\nDuration : 1h 16mn\r\nBit rate mode: Variable\r\nBit rate : 106 Kbps\r\nNominal bit rate : 128 Kbps\r\nChannel(s) : 2 channels\r\nSampling rate: 48.0 KHz\r\nCompression mode : Lossy\r\nStream size: 57.5 MiB (8%)\r\nAlignment: Aligned on interleaves\r\nInterleave, duration : 24 ms (0.58 video frame)\r\nInterleave, preload duration : 174 ms\r\nWriting library: LAME3.98r\r\nEncoding settings: -m j -V 4 -q 2 -lowpass 17 --abr 128\r\nLanguage : English
Bloodlust.Zombies.2011.DVDSCR.XviD-SiC.avi 734.2 MB
Bloodlust.Zombies.2011.DVDSCR.XviD-SiC.nfo 7.378 KB
Bloodlust.Zombies.2011.DVDSCR.XviD-SiC.sample.avi 6.797 MB
Gathering some info...

Register and log in Isohunt and see no captcha anymore!

4000 symbols left
Hash 5446243FF5B8F17FA714C48BCF9FF9F184425222

Related torrents for "Bloodlust Zombies 2011 DVDSCR XviD SiC torrent [superseeds org]"

Torrent search:

screener 2011