imdb
rating

6.1
Sucker Punch

Sucker Punch (2011)

Action, Fantasy, Thriller

Full description

Sucker Punch 2011 DVDRiP XViD AC3-FLAWL3SS [SuBPL]

Size 1.721 GB   0 seeders     Added 2011-06-29 15:09:06

Stream torrent
Starting‥ You need BitLord! Get it from 1BitLord.com
6.7
To download or stream you need BitLord. Visit them at BitLord.com
Sucker.Punch.2011.DVDRiP.XViD.AC3-FLAWL3SS\r\n\r\n[URL]http://http://www.imdb.com/title/tt0978764/[/URL]\r\n\r\nFormat                           : AVI\r\nFormat/Info                      : Audio Video Interleave\r\nFile size                        : 1.60 GiB\r\nDuration                         : 1h 49mn\r\nOverall bit rate                 : 2 090 Kbps\r\nWriting application              : VirtualDubMod 1.5.10.2 (build 2540/release)\r\nWriting library                  : VirtualDubMod build 2540/release\r\n\r\nVideo\r\nID                               : 0\r\nFormat                           : MPEG-4 Visual\r\nFormat profile                   : Advanced Simple@L5\r\nFormat settings, BVOP            : 1\r\nFormat settings, QPel            : No\r\nFormat settings, GMC             : No warppoints\r\nFormat settings, Matrix          : Default (H.263)\r\nCodec ID                         : XVID\r\nCodec ID/Hint                    : XviD\r\nDuration                         : 1h 49mn\r\nBit rate                         : 1 697 Kbps\r\nWidth                            : 720 pixels\r\nHeight                           : 304 pixels\r\nDisplay aspect ratio             : 2.35:1\r\nFrame rate                       : 23.976 fps\r\nColor space                      : YUV\r\nChroma subsampling               : 4:2:0\r\nBit depth                        : 8 bits\r\nScan type                        : Progressive\r\nCompression mode                 : Lossy\r\nBits/(Pixel*Frame)               : 0.323\r\nStream size                      : 1.30 GiB (81%)\r\nWriting library                  : XviD 1.2.1 (UTC 2008-12-04)\r\n\r\nAudio\r\nID                               : 1\r\nFormat                           : AC-3\r\nFormat/Info                      : Audio Coding 3\r\nMode extension                   : CM (complete main)\r\nCodec ID                         : 2000\r\nDuration                         : 1h 49mn\r\nBit rate mode                    : Constant\r\nBit rate                         : 384 Kbps\r\nChannel(s)                       : 6 channels\r\nChannel positions                : Front: L C R, Side: L R, LFE\r\nSampling rate                    : 48.0 KHz\r\nBit depth                        : 16 bits\r\nCompression mode                 : Lossy\r\nStream size                      : 301 MiB (18%)\r\nAlignment                        : Split accross interleaves\r\nInterleave, duration             : 42 ms (1.00 video frame)\r\nInterleave, preload duration     : 500 ms
Sucker.Punch.2011.DVDRiP.XViD.AC3-FLAWL3SS.avi 1.721 GB
Sucker.Punch.2011.DVDRiP.XViD.AC3-FLAWL3SS.sfv 183 B
Sucker.Punch.2011.DVDRiP.XViD.AC3-FLAWL3SS.txt 38.206 KB
Gathering some info...

Register and log in Isohunt and see no captcha anymore!

4000 symbols left
Hash BED317622D66ED5AFF725C550832ED48CCA21318

Related torrents for "Sucker Punch 2011 DVDRiP XViD AC3-FLAWL3SS [SuBPL]"

Torrent search:

dvdrip 2011