[FLAC-EAC] Gregorio Paniagua - La Folia

Size 185.23 MB   0 seeders     Added 2011-06-30 13:48:59

Stream torrent
Starting‚Ä• You need BitLord! Get it from BitLord.com
10
To download or stream you need BitLord. Visit them at BitLord.com
[url=http://forum.tntvillage.scambioetico.org/tntforum/index.php?act=ST&f=75&t=257310&st=0].: Click for More info on this torrent :.[/url]\r\n[b]Album: La Folia[/b]\r\n[b]Data realizzazione: 1982[/b]                                    \r\n[b]Genere: Classica[/b]\r\n[b]Etichetta discografica: harmonia mundi[/b]\r\n[b]Data Pubblicazione: 2006[/b]\r\n\r\n[b][color=red].: Tracklist :.[/color][/b][LIST]1. Fons vitae/Dementia praecox angelorum/Supra solfamirevt\r\n2. Extravagans/Laurea minima/In vitro\r\n3. Oratio pro-folia/Fama volat/Citrus-Hesperides\r\n4. Principalis. Fermescens/Indica exacta/Adverso flumine\r\n5. Parsimonia aristocratiae\r\n6. Subtilis/De profundis-Extra muros\r\n7. Vulgaris-Sine populi notione/Vagula et blandula\r\n8. Nordica et desolata/Aurea mediocritas\r\n9. Nobilissima/Degradans et corruptae\r\n10. De pastoribus,Mathematica dies irae,Crepuscularis,Sine Nomine,Tristis est anima mea,Equites fortis armaturae,Audaces fortuna juvat,Sine praeputium,Ecclesiastica\r\n11. Theatralis et hipocritae/Ruralis/Alter indica perfecta\r\n12. De tolerantia aetherea/ Fuga ficta et carrus triumphalis\r\n[/LIST][b][color=red].: Recensione :.[/color][/b]\r\n[b][color=red].: Scheda tecnica :.[/color][/b]\r\n\r\nREM DATE 1982\r\nREM DISCID A00A610C\r\nREM COMMENT \"ExactAudioCopy v1.0b2\"\r\nPERFORMER \"Gregorio Paniagua\"\r\nTITLE \"La Folia\"\r\nFILE \"01 Fons vitae,Dementia praecox angelorum,Supra solfamirevt.flac\" WAVE\r\n  TRACK 01 AUDIO\r\n    TITLE \"Fons vitae/Dementia praecox angelorum/Supra solfamirevt\"\r\n    PERFORMER \"Gregorio Paniagua\"\r\n    PREGAP 00:00:33\r\n    INDEX 01 00:00:00\r\n  TRACK 02 AUDIO\r\n    TITLE \"Extravagans/Laurea minima/In vitro\"\r\n    PERFORMER \"Gregorio Paniagua\"\r\n    INDEX 00 05:55:62\r\nFILE \"02 Extravagans,Laurea minima,In vitro.flac\" WAVE\r\n    INDEX 01 00:00:00\r\n  TRACK 03 AUDIO\r\n    TITLE \"Oratio pro-folia/Fama volat/Citrus-Hesperides\"\r\n    PERFORMER \"Gregorio Paniagua\"\r\n    INDEX 00 02:07:45\r\nFILE \"03 Oratio pro-folia,Fama volat,Citrus-Hesperides.flac\" WAVE\r\n    INDEX 01 00:00:00\r\n  TRACK 04 AUDIO\r\n    TITLE \"Principalis. Fermescens/Indica exacta/Adverso flumine\"\r\n    PERFORMER \"Gregorio Paniagua\"\r\n    INDEX 00 02:26:50\r\nFILE \"04 Principalis. Fermescens,Indica exacta,Adverso flumine.flac\" WAVE\r\n    INDEX 01 00:00:00\r\nFILE \"05 Parsimonia aristocratiae.flac\" WAVE\r\n  TRACK 05 AUDIO\r\n    TITLE \"Parsimonia aristocratiae\"\r\n    PERFORMER \"Gregorio Paniagua\"\r\n    INDEX 01 00:00:00\r\n  TRACK 06 AUDIO\r\n    TITLE \"Subtilis/De profundis-Extra muros\"\r\n    PERFORMER \"Gregorio Paniagua\"\r\n    INDEX 00 03:10:55\r\nFILE \"06 Subtilis,De profundis-Extra muros.flac\" WAVE\r\n    INDEX 01 00:00:00\r\n  TRACK 07 AUDIO\r\n    TITLE \"Vulgaris-Sine populi notione/Vagula et blandula\"\r\n    PERFORMER \"Gregorio Paniagua\"\r\n    INDEX 00 01:28:00\r\nFILE \"07 Vulgaris-Sine populi notione,Vagula et blandula.flac\" WAVE\r\n    INDEX 01 00:00:00\r\n  TRACK 08 AUDIO\r\n    TITLE \"Nordica et desolata/Aurea mediocritas\"\r\n    PERFORMER \"Gregorio Paniagua\"\r\n    INDEX 00 01:37:30\r\nFILE \"08 Nordica et desolata,Aurea mediocritas.flac\" WAVE\r\n    INDEX 01 00:00:00\r\n  TRACK 09 AUDIO\r\n    TITLE \"Nobilissima/Degradans et corruptae\"\r\n    PERFORMER \"Gregorio Paniagua\"\r\n    INDEX 00 05:04:20\r\nFILE \"09 Nobilissima,Degradans et corruptae.flac\" WAVE\r\n    INDEX 01 00:00:00\r\nFILE \"10 De pastoribus,Mathematica dies irae,Crepuscularis,Sine Nomine,Tristis est anima mea,Equites fortis armaturae,Audaces fortuna juvat,Sine praeputium,Ecclesiastica.flac\" WAVE\r\n  TRACK 10 AUDIO\r\n    TITLE \"De pastoribus/Mathematica dies irae/Crepuscularis/Sine Nomine/Tristis est ani...\"\r\n    PERFORMER \"Gregorio Paniagua\"\r\n    INDEX 01 00:00:00\r\nFILE \"11 Theatralis et hipocritae,Ruralis,Alter indica perfecta.flac\" WAVE\r\n  TRACK 11 AUDIO\r\n    TITLE \"Theatralis et hipocritae/Ruralis/Alter indica perfecta\"\r\n    PERFORMER \"Gregorio Paniagua\"\r\n    INDEX 01 00:00:00\r\nFILE \"12 De tolerantia aetherea, Fuga ficta et carrus triumphalis.flac\" WAVE\r\n  TRACK 12 AUDIO\r\n    TITLE \"De tolerantia aetherea/ Fuga ficta et carrus triumphalis\"\r\n    PERFORMER \"Gregorio Paniagua\"\r\n    INDEX 01 00:00:00\r\n\r\n[b][color=red][.: Note :.][/color][/b]
01 Fons vitae,Dementia praecox angelorum,Supra solfamirevt.flac 25.637 MB
02 Extravagans,Laurea minima,In vitro.flac 8.607 MB
03 Oratio pro-folia,Fama volat,Citrus-Hesperides.flac 10.017 MB
Gathering some info...

Register and log in Isohunt and see no captcha anymore!

4000 symbols left
Hash F16EE4676DA9FC96601A79C18C8B510020516CBE