imdb
rating

6.3
Transformers: Dark of the Moon

Transformers: Dark of the Moon (2011)

Action, Adventure, Science Fiction

Full description

Transformers 3 Dark of the Moon 2011 SCAM MPG HINDI ICTV

Size 839.815 MB   0 seeders     Added 2011-07-01 18:06:33

Stream torrent
Starting‥ You need BitLord! Get it from BitLord.com
To download or stream you need BitLord. Visit them at BitLord.com
[img]image[/img]


Movie Info: <http: />


Transformers 3 Dark of the Moon 2011 SCAM MPG HINDI ICTV
Movie Information:..:
Original Movie Site:: http://www.transformersmovie.com/
IMDB::::::::::::::::: http://www.imdb.com/title/tt1399103/
Genre:::::::::::::::: Action | Adventure | Sci-Fi
Plot::::::::::::::::: The Autobots learn of a Cybertronian spacecraft hidden on the Moon, and race against the Decepticons to reach it and to learn its secrets





Details:

 
Format                           : MPEG-PS
File size                        : 801 MiB
Duration                         : 2h 23mn
Overall bit rate                 : 780 Kbps

Video
ID                               : 224 (0xE0)
Format                           : MPEG Video
Format version                   : Version 2
Format settings, BVOP            : Yes
Format settings, Matrix          : Default
Duration                         : 2h 23mn
Bit rate mode                    : Constant
Bit rate                         : 700 Kbps
Nominal bit rate                 : 1 150 Kbps
Width                            : 352 pixels
Height                           : 288 pixels
Display aspect ratio             : 1.222
Frame rate                       : 25.000 fps
Standard                         : PAL
Color space                      : YUV
Bit depth                        : 8 bits
Scan type                        : Progressive
Compression mode                 : Lossy
Bits/(Pixel*Frame)               : 0.276
Stream size                      : 719 MiB (90%)

Audio
ID                               : 192 (0xC0)
Format                           : MPEG Audio
Format version                   : Version 1
Format profile                   : Layer 2
Duration                         : 2h 23mn
Bit rate mode                    : Constant
Bit rate                         : 64.0 Kbps
Channel(s)                       : 2 channels
Sampling rate                    : 48.0 KHz
Compression mode                 : Lossy
Stream size                      : 65.7 MiB (8%)


Screenshot:

 
image


ENJOY!
Important.txt 1.39 KB
Torrent downloaded from extratorrent.com.txt 83 B
Transformers 3 Dark of the Moon 2011 SCAM MPG HINDI ICTV.mpg 839.811 MB
Gathering some info...

Register and log in Isohunt and see no captcha anymore!

4000 symbols left
Hash 5500F0BFBFA9EF58F107966C1A9315BD82804758

Related torrents for "Transformers 3 Dark of the Moon 2011 SCAM MPG HINDI ICTV"

Torrent search:

hindi 2011