imdb
rating

8.1
The Girls

The Girls (1961)

Comedy, Romance

Full description
quality   dvdrip cam

David Guetta - Where Them Girls At ft. Nicki Minaj amp Flo Rida 10

Size 103.801 MB   0 seeders     Added 2011-07-02 13:48:09

Stream torrent
Starting‥ You need BitLord! Get it from BitLord.com
To download or stream you need BitLord. Visit them at BitLord.com
V413HAV Presents David Guetta - Where Them Girls At ft. Nicki Minaj & Flo Rida 1080p.
==========Please Don't Kill These Innocent Torrents ^.^ So Keep Seeding==========
Format : MPEG-4
Format profile : Base Media / Version 2
Codec ID : mp42
File size : 99.0 MiB
Duration : 3mn 47s
Overall bit rate : 3 651 Kbps
Video
ID : 1
Format : AVC
Format/Info : Advanced Video Codec
Format profile : High@L4.0
Format settings, CABAC : Yes
Format settings, ReFrames : 1 frame
Format settings, GOP : M=1, N=50
Codec ID : avc1
Codec ID/Info : Advanced Video Coding
Duration : 3mn 47s
Bit rate mode : Variable
Bit rate : 3 494 Kbps
Maximum bit rate : 7 412 Kbps
Width : 1 920 pixels
Height : 1 080 pixels
Display aspect ratio : 16:9
Frame rate mode : Constant
Frame rate : 25.000 fps
Color space : YUV
Chroma subsampling : 4:2:0
Bit depth : 8 bits
Scan type : Progressive
Bits/(Pixel*Frame) : 0.067
Stream size : 94.7 MiB (96%)
Audio
ID : 2
Format : AAC
Format/Info : Advanced Audio Codec
Format profile : LC
Codec ID : 40
Duration : 3mn 47s
Bit rate mode : Variable
Bit rate : 152 Kbps
Maximum bit rate : 202 Kbps
Channel(s) : 2 channels
Channel positions : Front: L R
Sampling rate : 44.1 KHz
Compression mode : Lossy
Stream size : 4.12 MiB (4%)
No Logo's. Official Video. Thank You. 
413.jpg 38.732 KB
David Guetta - Where Them Girls At ft. Nicki Minaj & Flo Rida.MP4 103.762 MB
Read Me!.txt 158 B
Gathering some info...

Register and log in Isohunt and see no captcha anymore!

4000 symbols left
Hash EEEF0E755EBA2A7D5D848849A7D6C1E6EEF79D92

Related torrents for "David Guetta - Where Them Girls At ft. Nicki Minaj amp Flo Rida 10"