imdb
rating

8.6
Futurama

Futurama (1999)

Adult Cartoons, Comedy, Sci-Fi

Full description

Futurama S06e16 [XviD - Eng Mp3 - HardSub Ita] HDTVrip [TNT Village]

Size 142.921 MB   0 seeders     Added 2011-07-03 03:39:42

Stream torrent
Starting‥ You need BitLord! Get it from 1BitLord.com
To download or stream you need BitLord. Visit them at BitLord.com
Futurama S06e16 [XviD - Eng Mp3 - HardSub Ita] HDTVrip [TNT Village]

[url=http://forum.tntvillage.scambioetico.org/tntforum/index.php?showtopic=257651].: Scheda Originale :.[/url]

.: Trama :.

Futurama è una serie tv a cartoni animati creata da Matt Groening (autore anche de I Simpsons) e David X. Cohen, trasmessa in Italia su Italia 1 e Fox (su SKY).

La serie è ambientata nella New York dell'anno 3000 (chiamata New New York in quanto la vecchia New York dei nostri tempi giace sotto di essa, fungendo da fogna) e racconta le avventure di Philip J. Fry, fattorino di una pizzeria che il 31 dicembre del 1999 finisce accidentalmente in una capsula per il sonno criogenico e si risveglia mille anni dopo, iniziando a lavorare come fattorino spaziale per la ditta di spedizioni di un suo discendente, il vecchissimo Professor Farnsworth: questo gli permetterà di viaggiare molto e di finire nei guai in tutti i pianeti della galassia.

L'elemento fondamentale della serie, oltre ad una ben studiata sceneggiatura, è rappresentato dalle tantissime citazioni, in particolare dalla letteratura e cinematografia fantascientifica.

Molti spunti umoristici nascono da una visione assurda ed esasperata della tecnologia (che ad esempio ha creato le cabine automatizzate per il suicidio, o l'albero bonsai di macedonia) e di come gli uomini si trovino a convivere con robot e le macchine che posseggono i loro stessi vizi e virtù.

La sesta stagione di Futurama è andata in onda negli USA a partire da giugno 2010 per un totale di 26 episodi. Da questa stagione la trasmissione è passata dall'emittente Fox a Comedy Central.  

.: Locandina :.

[img]image[/img]

.: Scheda :.

[b]Titolo originale: [/b]Futurama
[b]Anno: [/b]2010
[b]Genere: [/b]Cartoon
[b]Distribuzione: [/b]Comedy Central
[b]Durata approssimativa episodi: [/b]20 minuti

.: Screenshot :.

[URL=http://imageshack.us/photo/my-images/189/futurama6x06lethalinspe.jpg/][IMG]image[/IMG][/URL] [URL=http://imageshack.us/photo/my-images/209/futurama6x03attackofthe.jpg/][IMG]image[/IMG][/URL]

========================================

.: Dati tecnici del file :.

General
Complete name                    : 16 - Ghost in the machines.avi
Format                           : AVI
Format/Info                      : Audio Video Interleave
File size                        : 136 MiB
Duration                         : 21mn 0s
Overall bit rate                 : 907 Kbps
Writing application              : transcode-1.0.4
Writing library                  : VirtualDub build 30091/release

Video
ID                               : 0
Format                           : MPEG-4 Visual
Format profile                   : Advanced Simple@L5
Format settings, BVOP            : 2
Format settings, QPel            : No
Format settings, GMC             : No warppoints
Format settings, Matrix          : Default (H.263)
Muxing mode                      : Packed bitstream
Codec ID                         : XVID
Codec ID/Hint                    : XviD
Duration                         : 21mn 0s
Bit rate                         : 732 Kbps
Width                            : 624 pixels
Height                           : 352 pixels
Display aspect ratio             : 16:9
Frame rate                       : 23.976 fps
Color space                      : YUV
Chroma subsampling               : 4:2:0
Bit depth                        : 8 bits
Scan type                        : Progressive
Compression mode                 : Lossy
Bits/(Pixel*Frame)               : 0.139
Stream size                      : 110 MiB (81%)
Writing library                  : XviD 63

Audio
ID                               : 1
Format                           : MPEG Audio
Format version                   : Version 1
Format profile                   : Layer 3
Codec ID                         : 55
Codec ID/Hint                    : MP3
Duration                         : 21mn 0s
Bit rate mode                    : Variable
Bit rate                         : 128 Kbps
Channel(s)                       : 2 channels
Sampling rate                    : 48.0 KHz
Compression mode                 : Lossy
Stream size                      : 24.4 MiB (18%)
Alignment                        : Aligned on interleaves
Interleave, duration             : 24 ms (0.58 video frame)
Interleave, preload duration     : 585 ms
16 - Ghost in the machines.avi 142.921 MB
Gathering some info...

Register and log in Isohunt and see no captcha anymore!

4000 symbols left
Hash 10f967a50dbbea2a09a5dba88b4e644669f58bb6

Related torrents for "Futurama S06e16 [XviD - Eng Mp3 - HardSub Ita] HDTVrip [TNT Village]"