imdb
rating

6.3
Transformers: Dark of the Moon

Transformers: Dark of the Moon (2011)

Action, Adventure, Science Fiction

Full description

Transformers: Dark of the Moon 2011 SCAM MPG HINDI ICTV

Size 839.813 MB   0 seeders     Added 2011-07-05 07:53:56

Stream torrent
Starting‥ You need BitLord! Get it from BitLord.com
To download or stream you need BitLord. Visit them at BitLord.com
Transformers: Dark of the Moon 2011 SCAM MPG HINDI ICTV


Information:


Banner.......... :  Paramount Pictures

Genre............:  Action | Adventure | Sci-Fi

Year.............:  2011

Cast.............:  Shia LaBeouf, Rosie Huntington-Whiteley and Tyrese Gibson

Video............:  MPG

SOURCE...........:  ICTV

LANGUAGE.........:  HINDI


Details:

 
Format                           : MPEG-PS
File size                        : 801 MiB
Duration                         : 2h 23mn
Overall bit rate                 : 780 Kbps

Video
ID                               : 224 (0xE0)
Format                           : MPEG Video
Format version                   : Version 2
Format settings, BVOP            : Yes
Format settings, Matrix          : Default
Duration                         : 2h 23mn
Bit rate mode                    : Constant
Bit rate                         : 700 Kbps
Nominal bit rate                 : 1 150 Kbps
Width                            : 352 pixels
Height                           : 288 pixels
Display aspect ratio             : 1.222
Frame rate                       : 25.000 fps
Standard                         : PAL
Color space                      : YUV
Bit depth                        : 8 bits
Scan type                        : Progressive
Compression mode                 : Lossy
Bits/(Pixel*Frame)               : 0.276
Stream size                      : 719 MiB (90%)

Audio
ID                               : 192 (0xC0)
Format                           : MPEG Audio
Format version                   : Version 1
Format profile                   : Layer 2
Duration                         : 2h 23mn
Bit rate mode                    : Constant
Bit rate                         : 64.0 Kbps
Channel(s)                       : 2 channels
Sampling rate                    : 48.0 KHz
Compression mode                 : Lossy
Stream size                      : 65.7 MiB (8%)
Transformers 3 Dark of the Moon 2011 SCAM MPG HINDI ICTV.mpg 839.811 MB
Transformers 3 Dark of the Moon 2011 SCAM MPG HINDI ICTV.nfo 2.104 KB
Gathering some info...

Register and log in Isohunt and see no captcha anymore!

4000 symbols left
Hash 895DFDC1FBF435C6495801E5902AE42884179438

Related torrents for "Transformers: Dark of the Moon 2011 SCAM MPG HINDI ICTV"

Torrent search:

hindi 2011