imdb
rating

7.5
Total Recall

Total Recall (1990)

Action, Adventure, Science Fiction

Full description

Total Recall (1990) BRRip XviD MP3 Romanian 640x344

Size 1.916 GB   0 seeders     Added 2011-07-05 13:10:08

Stream torrent
Starting‥ You need BitLord! Get it from BitLord.com
10
To download or stream you need BitLord. Visit them at BitLord.com
Total Recall (1990)
   -------------------
   Director: Paul Verhoeven

   Stars: Arnold Schwarzenegger
          Sharon Stone
          Michael Ironside

   http://www.imdb.com/title/tt0100802/
   -------------------
   FILE:

   Name: Total Recall (1990) BRRip XviD MP3 Romanian 640x344
   File: Total.Recall.(1990).BRRip.XviD.MP3.Romanian.640x344.mkv
   Size: 1,78 GB (1.915.683.298 bytes)

      MD5: 9d0c0fc29fce1365079ece21b3cbf944
     SHA1: 64f07c5f34dd6b6d676d25635af13f2083627ab7
   SHA256: ea90b6f07b7f80676fa0f45028b75ff3e36d03e54f1ab7d7d7725ddb0371f2b8

   General
      Format : Matroska
      File size : 1.78 GiB
      Duration : 1h 53mn
      Overall bit rate : 2 253 Kbps
   Video #1
      Format : MPEG-4 Visual
      Codec ID : XVID - Codec ID/Hint : XviD
      Bit rate : 1 953 Kbps
      Width : 640 pixels
      Height : 344 pixels
      Display aspect ratio : 1.860
      Frame rate : 23.976 fps
      Resolution : 24 bits
      Scan type : Progressive
      Stream size : 1.54 GiB (87%)
      Writing library : XviD 64
   Audio #2
      Format : MPEG Audio
      Format version : Version 1
      Format profile : Layer 3
      Codec ID : A_MPEG/L3 - Codec ID/Hint : MP3
      Duration : 1h 53mn
      Bit rate mode : Constant
      Bit rate : 256 Kbps
      Channel(s) : 2 channels
      Sampling rate : 48.0 KHz
      Resolution : 16 bits
      Stream size : 208 MiB (11%)
   Text #3
      Format : UTF-8
      Codec ID : S_TEXT/UTF8
      Codec ID/Info : UTF-8 Plain Text
      Language : Romanian
   -------------------
Total.Recall.(1990).BRRip.XviD.MP3.Romanian.640x344.mkv 1.916 GB
Gathering some info...

Register and log in Isohunt and see no captcha anymore!

4000 symbols left
Hash 0AB503BBCE035AD2C563AB6DE07963731093ACED

Related torrents for "Total Recall (1990) BRRip XviD MP3 Romanian 640x344"

Torrent search:

1990 bd