Symphony

Symphony (2014)

Full description

KiSS - Symphony I II (2003)-2DVD

Size 9.226 GB   0 seeders     Added 2011-07-05 23:42:13

Stream torrent
Starting‥ You need BitLord! Get it from BitLord.com
To download or stream you need BitLord. Visit them at BitLord.com
Kiss Symphony: Alive IV is a 2003 live album from Kiss performing with the Melbourne Symphony Orchestra.
The arrangements were made by David Campbell, who also conducted the MSO. It is the group's fourth album in the Alive series
and first release under Kiss Records and Sanctuary Records. The album featured three of the original members of Kiss
(Peter Criss, Paul Stanley, and Gene Simmons). Ace Frehley once again left the band and the concert featured for the first time
a replacement musician, Tommy Thayer, dressed as Ace Frehley's "Spaceman".
Back in 2000, Kiss was to release the original Alive IV (Featuring the original re-united lineup) but, due to label politics
and contracts, it was not to be. Even with the artwork being revealed[1] and "Rock and Roll All Nite" (from Alive IV)
being added to the Kiss Box Set, the album was shelved. The band then moved labels from Universal/Island to Sanctuary Music
and they released Alive IV - Kiss Symphony. However the original Alive IV was indeed released when the band released the box set
of all past Alive albums entitled Kiss Alive! 1975-2000 in 2006. The album is not called Alive IV, but rather ALIVE:
The Millennium Concert.
The members of the Melbourne Symphony Orchestra who accompanied Kiss during this performance wore makeup that mimicked
the band members. At the same time they also wore tuxedos.
DISC ONE:
The KISS SYMPHONY STORY
- A documentary about the making of the Melbourne shows containing backstage
and rehearsal footage as well as interviews with all the band members.
- Act 3 with The Melbourne Symphony Orchestra
"Detroit Rock City"
"King of the Night Time World"
"Do You Love Me"
"Great Expectations"
"Shout It Out Loud"
"God of Thunder"
"Love Gun"
"I Was Made For Loving You"
"Black Diamond"
"Rock and Roll All Nite"
DISC TWO:
Act One: Kiss
"Deuce" (Gene Simmons)
"Strutter" (Paul Stanley, Simmons)
"Let Me Go, Rock 'n' Roll" (Stanley, Simmons)
"Lick It Up" (Vinnie Vincent, Stanley)
"Calling Dr. Love" (Simmons)
"Psycho Circus" (Stanley, Curtis Cuomo)
Act Two: Kiss with The Melbourne Symphony Ensemble
"Beth" (Peter Criss, Stan Penridge, Bob Ezrin)
"Forever" (Stanley, Michael Bolton)
"Goin' Blind" (Simmons, Stephen Coronel)
"Sure Know Something" (Stanley, Vini Poncia)
"Shandi" (Stanley, Poncia)
Act Three: Kiss with The Melbourne Symphony Orchestra
"Detroit Rock City" (Stanley, Ezrin)
"King of the Night Time World" (Stanley, Ezrin, Kim Fowley, Mark Anthony)
"Do You Love Me?" (Stanley, Ezrin, Fowley)
"Shout It Out Loud" (Stanley, Simmons, Ezrin)
"God of Thunder" (Stanley)
"Love Gun" (Stanley)
"Black Diamond" (Stanley)
"Great Expectations" (Simmons, Ezrin)
featuring the Australian Children's Choir
"I Was Made for Lovin' You" (Stanley, Desmond Child, Poncia)
"Rock and Roll All Nite" (Stanley, Simmons)
Personnel
Paul Stanley - rhythm guitar, lead vocals; acoustic guitar
Gene Simmons - bass guitar, lead vocals; acoustic bass
Tommy Thayer - lead guitar, backing vocals; acoustic guitar
Peter Criss - drums, lead and backing vocals
with
The Melbourne Symphony Orchestra
Mark Opitz - Producer
Tony Wall - Engineer
David Campbell - Composer
DVD ONE:
General
Complete name : C:\Users\KiSS-Symphony II._Title_01_01.vob
Format : MPEG-PS
File size : 4.26 GiB
Duration : 1h 34mn
Overall bit rate : 6 443 Kbps
Video #224
ID : 224 (0xE0)
Format : MPEG Video
Format version : Version 2
Format profile : Main@Main
Format settings, BVOP : Yes
Format settings, Matrix : Default
Duration : 1h 34mn
Bit rate mode : Constant
Bit rate : 3 909 Kbps
Nominal bit rate : 6 000 Kbps
Width : 720 pixels
Height : 576 pixels
Display aspect ratio : 2.35:1
Frame rate : 25.000 fps
Standard : PAL
Color space : YUV
Chroma subsampling : 4:2:0
Bit depth : 8 bits
Scan type : Interlaced
Scan order : Top Field First
Bits/(Pixel*Frame) : 0.377
Stream size : 2.58 GiB (61%)
Audio #128
ID : 128 (0x80)
Format : AC-3
Format/Info : Audio Coding 3
Mode extension : CM (complete main)
Duration : 1h 34mn
Bit rate mode : Constant
Bit rate : 448 Kbps
Channel(s) : 6 channels
Channel positions : Front: L C R, Side: L R, LFE
Sampling rate : 48.0 KHz
Bit depth : 16 bits
Stream size : 303 MiB (7%)
Audio #129
ID : 129 (0x81)
Format : AC-3
Format/Info : Audio Coding 3
Mode extension : CM (complete main)
Duration : 1h 34mn
Bit rate mode : Constant
Bit rate : 448 Kbps
Channel(s) : 2 channels
Channel positions : Front: L R
Sampling rate : 48.0 KHz
Bit depth : 16 bits
Stream size : 303 MiB (7%)
Audio #138
ID : 138 (0x8A)
Format : DTS
Format/Info : Digital Theater Systems
Duration : 1h 34mn
Bit rate mode : Constant
Bit rate : 1 510 Kbps
Channel(s) : 6 channels
Channel positions : Front: L C R, Side: L R, LFE
Sampling rate : 48.0 KHz
Bit depth : 24 bits
Stream size : 1 021 MiB (23%) 
KiSS - SYMPHONY (2003) 2DVD/KiSS-Symphony I._Title_01_01.vob 4.569 GB
KiSS - SYMPHONY (2003) 2DVD/KiSS-Symphony II._Title_01_01.vob 4.656 GB
KiSS - SYMPHONY (2003) 2DVD/Torrent downloaded from Demonoid.me.txt 46 B
Gathering some info...

Register and log in Isohunt and see no captcha anymore!

4000 symbols left
Hash 7273535d851e05c519fae0bac5efe97a62882b83

Related torrents for "KiSS - Symphony I II (2003)-2DVD"

Torrent search:

2003