imdb
rating

6.0
Larry Crowne

Larry Crowne (2011)

Comedy, Drama, Romance

Full description
quality   dvdrip cam x264 dvd telesync

Larry Crowne 2011 Eng TS READNFO XViD - IMAGiNE [NO RAR]

Size 1.062 GB   0 seeders     Added 2011-07-06 21:05:12

Stream torrent
Starting‥ You need BitLord! Get it from BitLord.com
To download or stream you need BitLord. Visit them at BitLord.com
Larry Crowne 2011 Eng TS READNFO XViD - IMAGiNE [NO RAR]

Trailer:
http://www.imdb.com/video/imdb/vi1973459993/

Plot: After losing his job, a middle-aged man reinvents himself
by going back to college. 

Ripper ...........: IMAGiNE IMDB Rating.......:5.8/10


Video
Codec.......: XVID Release Date......:01/7/11

Audio Codec.......:MP3 Theatre Date......:01/7/11

Audio Bitrate.....:128 Runtime.......:1h38mn

Subtitles.........:NIL Language..........:ENGLISH

Resolution...... 720 x 384 IMD bURL..........http://www.imdb.com/title/tt1583420/





DETAILS:



Video

ID : 0

Format : MPEG-4 Visual

Format profile :
Advanced Simple@L5

Format settings, BVOP : Yes

Format settings, QPel : No

Format
settings, GMC : No warppoints

Format settings,Matrix : Default (MPEG)

Muxing mode : Packed
bitstream

Codec ID : XVID

Codec ID/Hint : XviD

Duration : 1h 38mn

Bit rate :
865 Kbps

Width : 720pixels

Height : 384 pixels

Display aspect ratio : 1.875

Frame rate : 25.000 fps

Resolution : 24 bits

Colorimetry : 4:2:0

Scan type :
Progressive

Bits/(Pixel*Frame) : 0.125

Stream size : 611 MiB (86%)

Writing library :
XviD 61



Audio

ID :1

Format : MPEG Audio

Format version : Version
1

Format profile : Layer 3

Codec ID : 55

CodecID/Hint : MP3

Duration : 1h
38mn

Bit rate mode : Constant

Bit rate : 128 Kbps

Channel(s) : 2 channels

Sampling rate : 44.1 KHz

Resolution : 16bits

Stream size : 90.3 MiB (13%)

Alignment :
Split accross interleaves

Interleave, duration : 40 ms (1.00 video frame)

Interleave,preload
duration : 500 ms

Note: IMAGiNE Brings You Bad Teacher 2011 enjoy!...
Larry Crowne 2011 Eng TS READNFO XViD - IMAGiNE [NO RAR]/Budget seedboxs.txt 44 B
Larry Crowne 2011 Eng TS READNFO XViD - IMAGiNE [NO RAR]/dreamthe.net.txt 93 B
Larry Crowne 2011 Eng TS READNFO XViD - IMAGiNE [NO RAR]/Larry Crowne 2011 Eng TS READNFO XViD - IMAGiNE [NO RAR]/Larry Crowne 2011 Eng TS READNFO XViD - IMAGiNE [NO RAR].avi 1.061 GB
Gathering some info...

Register and log in Isohunt and see no captcha anymore!

4000 symbols left
Hash 3aca716954fa490decb4ace694e10cec9511d8c6

Related torrents for "Larry Crowne 2011 Eng TS READNFO XViD - IMAGiNE [NO RAR]"

Torrent search:

english telesync 2011