Happy Family

Happy Family (2003)

Comedy

Full description

Madeas Big Happy Family 2011 PPVRIP IFLIX

Size 1.765 GB   0 seeders     Added 2011-07-08 02:32:21

Stream torrent
Starting‥ You need BitLord! Get it from 1BitLord.com
To download or stream you need BitLord. Visit them at BitLord.com
Madeas Big Happy Family 2011 PPVRIP IFLIX
http://www.imdb.com/title/tt1787759/

[IMG]image[/IMG]
[IMG]image[/IMG]
[IMG]image[/IMG]
[IMG]image[/IMG]
[embed=youtube]http://www.youtube.com/watch?v=2P-8PKYipOY[/embed]

Language                         : English

Format                           : AVI
Format/Info                      : Audio Video Interleave
Format profile                   : OpenDML
File size                        : 1.64 GiB
Duration                         : 1h 46mn
Overall bit rate                 : 2 208 Kbps

Video
ID                               : 0
Format                           : MPEG-4 Visual
Format profile                   : Simple@L3
Format settings, BVOP            : No
Format settings, QPel            : No
Format settings, GMC             : No warppoints
Format settings, Matrix          : Default (H.263)
Codec ID                         : XVID
Codec ID/Hint                    : XviD
Duration                         : 1h 46mn
Bit rate                         : 2 062 Kbps
Width                            : 720 pixels
Height                           : 480 pixels
Display aspect ratio             : 3:2
Frame rate                       : 29.970 fps
Original frame rate              : 29.000 fps
Standard                         : NTSC
Color space                      : YUV
Chroma subsampling               : 4:2:0
Bit depth                        : 8 bits
Scan type                        : Progressive
Compression mode                 : Lossy
Bits/(Pixel*Frame)               : 0.199
Stream size                      : 1.53 GiB (93%)
Writing library                  : XviD 1.2.1 (UTC 2008-12-04)

Audio
ID                               : 1
Format                           : MPEG Audio
Format version                   : Version 1
Format profile                   : Layer 3
Mode                             : Joint stereo
Mode extension                   : MS Stereo
Codec ID                         : 55
Codec ID/Hint                    : MP3
Duration                         : 1h 46mn
Bit rate mode                    : Constant
Bit rate                         : 128 Kbps
Channel(s)                       : 2 channels
Sampling rate                    : 44.1 KHz
Compression mode                 : Lossy
Stream size                      : 39.9 MiB (2%)
Alignment                        : Aligned on interleaves
Interleave, duration             : 64 ms (1.91 video frames)
Writing library                  : LAME3.98.2

Release notes...

Another quality release from IFLIX
More to come very soon!

Video source: Ours
Audio source: Ours

Greetings to all other groups out there. You all do awesome work and we greatly appreciate it.
IFLIX :-)
Madeas Big Happy Family 2011 PPVRIP IFLIX www.IWANNADOWNLOAD.com INFO.txt 3.02 KB
Madeas Big Happy Family 2011 PPVRIP IFLIX www.IWANNADOWNLOAD.com.avi 1.758 GB
Sample.avi 7.521 MB
Gathering some info...

Register and log in Isohunt and see no captcha anymore!

4000 symbols left
Hash 967033D676A3E2DE9AE1D6A73ADB657D4B86687D

Related torrents for "Madeas Big Happy Family 2011 PPVRIP IFLIX"

Torrent search:

ppvr 2011