Legacy of New Boyz - Cold Heart-1080p Anky

Size 113.484 MB   0 seeders     Added 2011-07-08 02:38:51

Stream torrent
Starting‚Ä• You need BitLord! Get it from BitLord.com
To download or stream you need BitLord. Visit them at BitLord.com
General
Complete name : Legacy of New Boyz - Cold Heart-HD-1080p-x264-2011 Anky.mkv
Format : Matroska
File size : 108 MiB
Duration : 2mn 40s
Overall bit rate : 5 645 Kbps
Video
ID : 1
Format : AVC
Format/Info : Advanced Video Codec
Format profile : High@L4.0
Format settings, CABAC : Yes
Format settings, ReFrames : 1 frame
Bit rate : 5 212 Kbps
Width : 1 920 pixels
Height : 1 080 pixels
Display aspect ratio : 16:9
Frame rate mode : Variable
Frame rate : 23.810 fps
Resolution : 24 bits
Colorimetry : 4:2:0
Scan type : Progressive
Bits/(Pixel*Frame) : 0.106
Stream size : 99.1 MiB (92%)
Audio
ID : 2
Format : AC-3
Format/Info : Audio Coding 3
Codec ID : A_AC3
Duration : 2mn 40s
Bit rate mode : Constant
Bit rate : 320 Kbps
Channel(s) : 2 channels
Channel positions : L R
Sampling rate : 48.0 KHz
Stream size : 6.14 MiB (6%)
 
anky.txt 115 B
Legacy of New Boyz - Cold Heart-HD-1080p-x264-2011 Anky.mkv 113.484 MB
Gathering some info...

Register and log in Isohunt and see no captcha anymore!

4000 symbols left
Hash 77CAA30C82BF450E0E9A76BCFA8E991A7A19BA5E