Mirapakay (2011) - 1CD - DVDRip - X264 - AAC - Team Picy Rippers.mp4

Size 734.493 MB   0 seeders     Added 2011-07-10 01:47:26

Stream torrent
Starting‚Ä• You need BitLord! Get it from 1BitLord.com
To download or stream you need BitLord. Visit them at BitLord.com
[color=blue][size=5][font="Times New Roman"]Complete name                    : Mirapakay (2011) - 1CD - DVDRip - X264 - AAC - [Team Picy Rippers].mp4
Format                           : MPEG-4
Format profile                   : Base Media
Codec ID                         : isom
File size                        : 700 MiB
Duration                         : 2h 35mn
Overall bit rate                 : 628 Kbps
Encoded date                     : UTC 2011-05-21 16:50:52
Tagged date                      : UTC 2011-05-21 16:50:52[/font][/size][/color]

[color=red][size=6][font="Comic Sans MS"]Video[/font][/size][/color]

[color=blue][size=5][font="Times New Roman"]Format                           : AVC
Format/Info                      : Advanced Video Codec
Format profile                   : High@L4.1
Format settings, CABAC           : Yes
Format settings, ReFrames        : 3 frames
Codec ID                         : avc1
Codec ID/Info                    : Advanced Video Coding
Duration                         : 2h 35mn
Bit rate mode                    : Variable
Bit rate                         : 593 Kbps
Maximum bit rate                 : 14.0 Mbps
Width                            : 608 pixels
Height                           : 256 pixels
Display aspect ratio             : 2.35:1
Frame rate mode                  : Constant
Frame rate                       : 23.976 fps
Color space                      : YUV
Chroma subsampling               : 4:2:0
Bit depth                        : 8 bits
Scan type                        : Progressive
Bits/(Pixel*Frame)               : 0.159
Stream size                      : 661 MiB (94%)
Writing library                  : x264 core 114 r1924 08d04a4
Encoded date                     : UTC 2011-05-21 13:58:22
Tagged date                      : UTC 2011-05-21 16:51:47
Color primaries                  : BT.709-5, BT.1361, IEC 61966-2-4, SMPTE RP177
Transfer characteristics         : BT.709-5, BT.1361
Matrix coefficients              : BT.709-5, BT.1361, IEC 61966-2-4 709, SMPTE RP177
[/font][/size][/color]

[color=red][size=6][font="Comic Sans MS"]Audio[/font][/size][/color]
[color=blue][size=5][font="Times New Roman"]ID                               : 2
Format                           : AAC
Format/Info                      : Advanced Audio Codec
Format profile                   : HE-AAC / LC
Codec ID                         : 40
Duration                         : 2h 35mn
Bit rate mode                    : Variable
Bit rate                         : 32.0 Kbps
Maximum bit rate                 : 54.0 Kbps
Channel(s)                       : 2 channels
Channel positions                : Front: L R
Sampling rate                    : 48.0 KHz / 24.0 KHz
Compression mode                 : Lossy
Stream size                      : 35.7 MiB (5%)
Encoded date                     : UTC 2011-05-21 16:51:41
Tagged date                      : UTC 2011-05-21 16:51:47
language                         : telugu
[/font][/size][/color]


[color=red][size=6][font=System]
screen shorts[/font][/size][/color]

[img]image[/img]
[img]image[/img]
[img]image[/img]
[img]image[/img]
Mirapakay (2011) - 1CD - DVDRip - X264 - AAC - [Team Picy Rippers].mp4 734.493 MB
Gathering some info...

Register and log in Isohunt and see no captcha anymore!

4000 symbols left
Hash 8058EA843BF841BE0D3DB88F9DAB9A49549D478F