Lenny Zakatek - Small But Hard (1989)

Size 300.42 MB   0 seeders     Added 2011-07-10 02:49:33

Stream torrent
Starting‚Ä• You need BitLord! Get it from BitLord.com
10
To download or stream you need BitLord. Visit them at BitLord.com
EAC extraction logfile from 11. October 2008, 1:37 for CD\r\nLenny Zakatek / Small But Hard\r\n\r\nUsed drive  : TSSTcorpDVD-ROM TS-H352C   Adapter: 1  ID: 1\r\nRead mode   : Secure with NO C2, accurate stream, disable cache\r\nRead offset correction : 6\r\nOverread into Lead-In and Lead-Out : No\r\n\r\nUsed output format : Internal WAV Routines\r\n                     44.100 Hz; 16 Bit; Stereo\r\n\r\nOther options      : \r\n    Fill up missing offset samples with silence : Yes\r\n    Delete leading and trailing silent blocks : No\r\n    Installed external ASPI interface\r\n\r\n\r\nTrack  1\r\n     Filename D:\\Music\\The Alan Parsons Project\\Lenny Zakatek - Small But Hard (1989)\\01. Shadow Of Love.wav\r\n\r\n     Pre-gap length  0:00:02.00\r\n\r\n     Peak level 100.0 %\r\n     Track quality 99.9 %\r\n     Test CRC B155262B\r\n     Copy CRC B155262B\r\n     Copy OK\r\n\r\nTrack  2\r\n     Filename D:\\Music\\The Alan Parsons Project\\Lenny Zakatek - Small But Hard (1989)\\02. Going For It.wav\r\n\r\n     Pre-gap length  0:00:01.38\r\n\r\n     Peak level 94.4 %\r\n     Track quality 99.9 %\r\n     Test CRC C47BEDC3\r\n     Copy CRC C47BEDC3\r\n     Copy OK\r\n\r\nTrack  3\r\n     Filename D:\\Music\\The Alan Parsons Project\\Lenny Zakatek - Small But Hard (1989)\\03. How Long.wav\r\n\r\n     Pre-gap length  0:00:01.38\r\n\r\n     Peak level 90.4 %\r\n     Track quality 100.0 %\r\n     Test CRC 79C1AE5D\r\n     Copy CRC 79C1AE5D\r\n     Copy OK\r\n\r\nTrack  4\r\n     Filename D:\\Music\\The Alan Parsons Project\\Lenny Zakatek - Small But Hard (1989)\\04. In Motion.wav\r\n\r\n     Pre-gap length  0:00:01.38\r\n\r\n     Peak level 82.3 %\r\n     Track quality 100.0 %\r\n     Test CRC 258C7B53\r\n     Copy CRC 258C7B53\r\n     Copy OK\r\n\r\nTrack  5\r\n     Filename D:\\Music\\The Alan Parsons Project\\Lenny Zakatek - Small But Hard (1989)\\05. Overnight Sensation.wav\r\n\r\n     Pre-gap length  0:00:01.37\r\n\r\n     Peak level 82.6 %\r\n     Track quality 99.9 %\r\n     Test CRC 24E4D853\r\n     Copy CRC 24E4D853\r\n     Copy OK\r\n\r\nTrack  6\r\n     Filename D:\\Music\\The Alan Parsons Project\\Lenny Zakatek - Small But Hard (1989)\\06. Butterfly.wav\r\n\r\n     Pre-gap length  0:00:01.37\r\n\r\n     Peak level 81.2 %\r\n     Track quality 99.9 %\r\n     Test CRC 104481DD\r\n     Copy CRC 104481DD\r\n     Copy OK\r\n\r\nTrack  7\r\n     Filename D:\\Music\\The Alan Parsons Project\\Lenny Zakatek - Small But Hard (1989)\\07. Long Distance Lover.wav\r\n\r\n     Pre-gap length  0:00:00.38\r\n\r\n     Peak level 86.2 %\r\n     Track quality 100.0 %\r\n     Test CRC 9DE92631\r\n     Copy CRC 9DE92631\r\n     Copy OK\r\n\r\nTrack  8\r\n     Filename D:\\Music\\The Alan Parsons Project\\Lenny Zakatek - Small But Hard (1989)\\08. Move A Little Closer.wav\r\n\r\n     Pre-gap length  0:00:01.37\r\n\r\n     Peak level 89.5 %\r\n     Track quality 100.0 %\r\n     Test CRC 31BB8866\r\n     Copy CRC 31BB8866\r\n     Copy OK\r\n\r\nNo errors occured\r\n\r\n\r\nEnd of status report
01. Shadow Of Love.flac 37.003 MB
02. Going For It.flac 41.76 MB
03. How Long.flac 39.636 MB
Gathering some info...

Register and log in Isohunt and see no captcha anymore!

4000 symbols left
Hash D538BD789E75B06C5FD5B5E66B1ED59717A9625B

We have tons of cool stuff like this:

Torrent search:

1989