Ferocious Planet 2010 R1 NTSC DVDR-SiC

Size 3.808 GB   0 seeders     Added 2011-07-10 02:58:42

Stream torrent
Starting‚Ä• You need BitLord! Get it from 1BitLord.com
To download or stream you need BitLord. Visit them at BitLord.com
Ferocious.Planet.2010.R1.NTSC.DVDR-SiC\r\n\r\nPoster:\r\n[img]image[/img]\r\n\r\nIMDB Link:\r\nhttp://www.imdb.com/title/tt1637728/\r\n\r\nDescription:\r\nA groundbreaking device is designed to glimpse alternate universes. But when the machine malfunctions and transports a group of observers into a nightmarish dimension of alien terrors, the travelers must use ingenuity to survive. \r\n\r\n\r\nGeneral\r\nComplete name                    : Ferocious.Planet.2010.R1.NTSC.DVDR-SiC\r\nFormat                           : MPEG-PS\r\nFile size                        : 3.49GB\r\nDuration                         : 1h 28mn\r\nOverall bit rate                 : 4 735 Kbps\r\n\r\nVideo\r\nID                               : 224 (0xE0)\r\nFormat                           : MPEG Video\r\nFormat version                   : Version 2\r\nFormat profile                   : Main@Main\r\nFormat settings, BVOP            : Yes\r\nFormat settings, Matrix          : Custom\r\nBit rate mode                    : Variable\r\nBit rate                         : 4 193 Kbps\r\nNominal bit rate                 : 9 800 Kbps\r\nWidth                            : 720 pixels\r\nHeight                           : 480 pixels\r\nDisplay aspect ratio             : 16:9\r\nFrame rate                       : 29.970 fps\r\nStandard                         : NTSC\r\nColor space                      : YUV\r\nChroma subsampling               : 4:2:0\r\nBit depth                        : 8 bits\r\nScan type                        : Interlaced\r\nScan order                       : Top Field First\r\nCompression mode                 : Lossy\r\nBits/(Pixel*Frame)               : 0.405\r\nStream size                      : 907 MiB (89%)\r\n\r\nAudio\r\nID                               : 189 (0xBD)-128 (0x80)\r\nFormat                           : AC-3\r\nFormat/Info                      : Audio Coding 3\r\nMode extension                   : CM (complete main)\r\nMuxing mode                      : DVD-Video\r\nDuration                         : 30mn 13s\r\nBit rate mode                    : Constant\r\nBit rate                         : 448 Kbps\r\nChannel(s)                       : 6 channels\r\nChannel positions                : Front: L C R, Side: L R, LFE\r\nSampling rate                    : 48.0 KHz\r\nBit depth                        : 16 bits\r\nCompression mode                 : Lossy\r\nStream size                      : 96.9 MiB (9%)\r\n\r\nsubtitles                        : Yes, english\r\nsample included                  : Yes\r\n\r\nScreenshots:\r\n[img]image[/img]\r\n[img]image[/img]\r\n[img]image[/img]\r\n[img]image[/img]\r\n[img]image[/img]\r\n\r\nNote: untouched\r\n\r\nEncoder: scumbag\r\n\r\nEnjoy!\r\n\r\nRespects to CaptainHomey, Cyanide, CM8, Rx, bobwhite, ELEKTRI4KA, Killerhz, XtremE, PA, YeFsTe and everyone in the struggle...
Ferocious.Planet.2010.R1.NTSC.DVDR-SiC.nfo 6.874 KB
Ferocious.Planet.2010.R1.NTSC.DVDR-SiC.sample.vob 52.607 MB
VIDEO_TS/VIDEO_TS.BUP 14.336 KB
Gathering some info...

Register and log in Isohunt and see no captcha anymore!

4000 symbols left
Hash 54872F15F24F3EAE3224FF6A0D2880295959B01B