imdb
rating

6.8
I Am Slave

I Am Slave (2010)

Drama, Thriller, Foreign

Full description
quality   bd dvdrip x264 hd

I Am Slave 2010 DVDRip H263 MP3-ART3MiS

Size 970.457 MB   0 seeders     Added 2011-07-12 02:52:16

Stream torrent
Starting‥ You need BitLord! Get it from BitLord.com
10
To download or stream you need BitLord. Visit them at BitLord.com
I Am Slave 2010 DVDRIP\r\n[IMG]image[/IMG]\r\nI Am Slave\r\n\r\nBased on the real-life experiences of Mende Nazer,the story unfolds as twelve-year-old Malia,daughter of champion wrestler Bah,is abducted from her Sudanese village in the Nubar Mountains by pro-government Arab militia and sold into slavery to a woman in Khartoum,who beats her for touching her daughter. After six years she is sent to London,where her name is changed,but her miserable life of servitude continues. Her passport is taken and she is told that her father will die if she goes to the authorities. Fortunately she meets a sympathetic person who seems to offer her the hope of escape and reunion with Bah,back in Sudan. For all the film's optimism an end title states that there are around 5,000 'slave' workers currently in Britain.\r\n[IMG]image[/IMG]\r\nComplete name : I Am Slave 2010 DVDRip.H263.MP3-ART3MiS.avi\r\nFormat : AVI\r\nFormat/Info : Audio Video Interleave\r\nFile size : 917 MiB\r\nDuration : 1h 20mn\r\nOverall bit rate : 1 601 Kbps\r\nWriting application : Lavf52.91.0\r\nVideo\r\nID : 0\r\nFormat : MPEG-4 Visual\r\nFormat profile : Simple@L1\r\nFormat settings, BVOP : No\r\nFormat settings, QPel : No\r\nFormat settings, GMC : No warppoints\r\nFormat settings, Matrix : Default (H.263)\r\nCodec ID : FMP4\r\nDuration : 1h 20mn\r\nBit rate : 1 331 Kbps\r\nWidth : 720 pixels\r\nHeight : 304 pixels\r\nDisplay aspect ratio : 2.35:1\r\nFrame rate : 29.970 fps\r\nColor space : YUV\r\nChroma subsampling : 4:2:0\r\nBit depth : 8 bits\r\nScan type : Progressive\r\nCompression mode : Lossy\r\nBits/(Pixel*Frame) : 0.203\r\nStream size : 763 MiB (83%)\r\nWriting library : Lavc52.101.0\r\nAudio\r\nID : 1\r\nFormat : MPEG Audio\r\nFormat version : Version 1\r\nFormat profile : Layer 3\r\nMode : Joint stereo\r\nCodec ID : 55\r\nCodec ID/Hint : MP3\r\nDuration : 1h 20mn\r\nBit rate mode : Constant\r\nBit rate : 256 Kbps\r\nChannel(s) : 2 channels\r\nSampling rate : 44.1 KHz\r\nCompression mode : Lossy\r\nStream size : 147 MiB (16%)\r\nAlignment : Aligned on interleaves\r\nInterleave, duration : 26 ms (0.78 video frame)\r\nInterleave, preload duration : 52 ms
I Am Slave 2010 DVDRip.H263.MP3-ART3MiS.avi 961.307 MB
I Am Slave 2010 DVDRip.H263.MP3-ART3MiS.avi_thumbs_[2011.07.11_20.08.36].jpg 282.318 KB
Info.txt 4.322 KB
Gathering some info...

Register and log in Isohunt and see no captcha anymore!

4000 symbols left
Hash 80A277441A50872848A24CCCFCDEF9A6D940C2E5

Related torrents for "I Am Slave 2010 DVDRip H263 MP3-ART3MiS"

Torrent search:

dvdrip 2010