imdb
rating

7.0
Rio

Rio (2011)

Adventure, Animation, Comedy, Family

Full description
quality   cam screener dvdrip telesync

Rio.2011.iTALiAN.LD-AC3.5.1.720p.BDRip.XviD-TrTd_CREW

Size 1.349 GB   0 seeders     Added 2011-07-12 07:00:27

Stream torrent
Starting‥ You need BitLord! Get it from BitLord.com
6.4
To download or stream you need BitLord. Visit them at BitLord.com
[img]image[/img]

[img]image[/img]


[img]image[/img]

[color=red]USCITA CINEMA:[/color] 15/04/2011
[color=red]REGIA:[/color] Carlos Saldanha
[color=red]SCENEGGIATURA:[/color] Don Rhymer
[color=red]ATTORI:[/color] Jesse Eisenberg, Anne Hathaway, Rodrigo Santoro, Kate del Castillo, Fabio De Luigi, Victoria Cabello, Pino Insegno, Mario Biondi, José Altafini, Francesco Castelnuovo, Emilio Carelli


[color=red]FOTOGRAFIA:[/color] Renato Falcão
[color=red]MUSICHE:[/color] John Powell
[color=red]PRODUZIONE:[/color] Blue Sky Studios, Twentieth Century Fox Animation
[color=red]DISTRIBUZIONE:[/color] 20th Century Fox
[color=red]PAESE:[/color] USA 2011
[color=red]GENERE:[/color] Animazione, Commedia, Avventura, Family
[color=red]DURATA:[/color] 96 Min
[color=red]FORMATO:[/color] Colore 3D 

[spoiler]General
Count                            : 259
Count of stream of this kind     : 1
Kind of stream                   : General
Kind of stream                   : General
Stream identifier                : 0
Count of video streams           : 1
Count of audio streams           : 1
Video_Format_List                : MPEG-4 Visual
Video_Format_WithHint_List       : MPEG-4 Visual (XviD)
Codecs Video                     : XviD
Audio_Format_List                : AC-3
Audio_Format_WithHint_List       : AC-3
Audio codecs                     : AC3
Complete name                    : Rio.2011.iTALiAN.LD-AC3.5.1.720p.BDRip.XviD-TrTd_CREW\Rio.2011.iTALiAN.LD-AC3.5.1.720p.BDRip.XviD-TrTd_CREW.avi
Folder name                      : Rio.2011.iTALiAN.LD-AC3.5.1.720p.BDRip.XviD-TrTd_CREW
File name                        : Rio.2011.iTALiAN.LD-AC3.5.1.720p.BDRip.XviD-TrTd_CREW
File extension                   : avi
Format                           : AVI
Format                           : AVI
Format/Info                      : Audio Video Interleave
Format/Extensions usually used   : avi
Interleaved                      : Yes
Codec                            : AVI
Codec                            : AVI
Codec/Info                       : Audio Video Interleave
Codec/Extensions usually used    : avi
File size                        : 1348853760
File size                        : 1.26 GiB
File size                        : 1 GiB
File size                        : 1.3 GiB
File size                        : 1.26 GiB
File size                        : 1.256 GiB
Duration                         : 5521840
Duration                         : 1h 32mn
Duration                         : 1h 32mn 1s 840ms
Duration                         : 1h 32mn
Duration                         : 01:32:01.840
Overall bit rate                 : 1954209
Overall bit rate                 : 1 954 Kbps
Stream size                      : 5432237
Stream size                      : 5.18 MiB (0%)
Stream size                      : 5 MiB
Stream size                      : 5.2 MiB
Stream size                      : 5.18 MiB
Stream size                      : 5.181 MiB
Stream size                      : 5.18 MiB (0%)
Proportion of this stream        : 0.00403
File creation date               : UTC 2011-07-11 22:01:33.170
File creation date (local)       : 2011-07-12 00:01:33.170
File last modification date      : UTC 2011-07-11 02:25:22.000
File last modification date (loc : 2011-07-11 04:25:22.000
Writing application              : VirtualDubMod 1.5.10.2 (build 2542/release)
Writing library                  : VirtualDubMod build 2542/release
Writing library                  : VirtualDubMod build 2542/release

Video
Count                            : 148
Count of stream of this kind     : 1
Kind of stream                   : Video
Kind of stream                   : Video
Stream identifier                : 0
ID                               : 0
ID                               : 0
Format                           : MPEG-4 Visual
Format profile                   : AdvancedSimple@L5
Format settings                  : BVOP
Format settings, BVOP            : Yes
Format settings, BVOP            : Yes
Format settings, QPel            : No
Format settings, QPel            : No
Format settings, GMC             : 0
Format settings, GMC             : No warppoints
Format settings, Matrix          : Default (H.263)
Format settings, Matrix          : Default (H.263)
Muxing mode                      : Packed bitstream
Codec ID                         : XVID
Codec ID/Hint                    : XviD
Codec ID/Url                     : http://mediaarea.net/XVID
Codec                            : XVID
Codec                            : XviD
Codec/Family                     : MPEG-4V
Codec/Info                       : XviD project
Codec/Url                        : http://www.xvid.org/Downloads.15.0.html
Codec/CC                         : XVID
Codec profile                    : AdvancedSimple@L5
Codec settings                   : BVOP / Packed Bitstream
Codec settings, Packet bitstream : Yes
Codec settings, BVOP             : Yes
Codec settings, QPel             : No
Codec settings, GMC              : 0
Codec settings, GMC              : No warppoints
Codec settings, Matrix           : Default (H.263)
Duration                         : 5521840
Duration                         : 1h 32mn
Duration                         : 1h 32mn 1s 840ms
Duration                         : 1h 32mn
Duration                         : 01:32:01.840
Bit rate                         : 1626442
Bit rate                         : 1 626 Kbps
Width                            : 1280
Width                            : 1 280 pixels
Height                           : 720
Height                           : 720 pixels
Pixel aspect ratio               : 1.000
Display aspect ratio             : 1.778
Display aspect ratio             : 16:9
Frame rate                       : 25.000
Frame rate                       : 25.000 fps
Frame count                      : 138046
Resolution                       : 24
Resolution                       : 24 bits
Colorimetry                      : 4:2:0
Scan type                        : Progressive
Scan type                        : Progressive
Interlacement                    : PPF
Interlacement                    : Progressive
Bits/(Pixel*Frame)               : 0.071
Delay                            : 0
Stream size                      : 1122618963
Stream size                      : 1.05 GiB (83%)
Stream size                      : 1 GiB
Stream size                      : 1.0 GiB
Stream size                      : 1.05 GiB
Stream size                      : 1.046 GiB
Stream size                      : 1.05 GiB (83%)
Proportion of this stream        : 0.83228
Writing library                  : XviD0062
Writing library                  : XviD 62
Writing library/Name             : XviD
Writing library/Version          : 62

Audio
Count                            : 129
Count of stream of this kind     : 1
Kind of stream                   : Audio
Kind of stream                   : Audio
Stream identifier                : 0
ID                               : 1
ID                               : 1
Format                           : AC-3
Format/Info                      : Audio Coding 3
Codec ID                         : 2000
Codec                            : AC3
Codec                            : AC3
Codec/Family                     : AC3
Codec/Info                       : Dolby AC3
Codec/CC                         : 2000
Duration                         : 5520064
Duration                         : 1h 32mn
Duration                         : 1h 32mn 0s 64ms
Duration                         : 1h 32mn
Duration                         : 01:32:00.064
Bit rate mode                    : CBR
Bit rate mode                    : Constant
Bit rate                         : 320000
Bit rate                         : 320 Kbps
Channel(s)                       : 6
Channel(s)                       : 6 channels
Channel positions                : Front: L C R, Surround: L R, LFE
Channel positions                : 3/2.1
Sampling rate                    : 48000
Sampling rate                    : 48.0 KHz
SamplingCount                    : 264963072
Delay                            : 0
Video delay                      : 0
Video0 delay                     : 0
Stream size                      : 220802560
Stream size                      : 211 MiB (16%)
Stream size                      : 211 MiB
Stream size                      : 211 MiB
Stream size                      : 211 MiB
Stream size                      : 210.6 MiB
Stream size                      : 211 MiB (16%)
Proportion of this stream        : 0.16370
Alignment                        : Split
Alignment                        : Split accross interleaves
Interleave, duration             : 1.60
Interleave, duration             : 64
Interleave, duration             : 64 ms (1.60 video frames)
Interleave, preload duration     : 500
Interleave, preload duration     : 500 ms

[/spoiler]



[img]image[/img]


Ambientato tra la splendida città di Rio de Janeiro e la lussureggiante Foresta Amazzonica in Brasile, la commedia-avventura è incentrata sulle vicende di Blu, un raro esemplare di pappagallo che pensa di essere l'ultimo della sua specie. Quando scopre che c'è un'altro pappagallo come lui - e che lei è un esemplare femminile - decide di abbandonare le comodità della sua gabbietta nella piccola cittadina del Minnesota dove vive e si dirige a Rio. Ma tra i due non è amore a prima vista: tra il pappagallo addomesticato che ha dimenticato come si vola e l'indipendente, selvatica e alquanto brava a volare pappagallina Jewel sarà anzi "Amore a prima rissa"...



[img]image[/img]

[img]image[/img]


[img]image[/img]
presentazione.rtf 31.373 KB
presentazione.txt 266 B
Rio.2011.iTALiAN.LD-AC3.5.1.720p.BDRip.XviD-TrTd_CREW_arc.avi 1.349 GB
Gathering some info...

Register and log in Isohunt and see no captcha anymore!

4000 symbols left
Hash C939AD987BA004C075847DF6C13335059F890C68

Related torrents for "Rio.2011.iTALiAN.LD-AC3.5.1.720p.BDRip.XviD-TrTd_CREW"

Torrent search:

italian 2011