imdb
rating

7.1
Soul Surfer

Soul Surfer (2011)

Action, Drama

Full description
quality   hd telesync dvdrip dvd cam

Soul Surfer 2011 DVDRip H263 MP3-ART3MiS

Size 1.315 GB   0 seeders     Added 2011-07-13 02:52:41

Stream torrent
Starting‥ You need BitLord! Get it from BitLord.com
10
To download or stream you need BitLord. Visit them at BitLord.com
Soul Surfer 2011 DVDRIP\r\n[IMG]image[/IMG]\r\nSoul Surfer\r\n\r\nThe inspiring story of teen surfer Bethany Hamilton, who lost her arm in a shark attack and courageously overcame all odds to become a champion again, through her sheer determination and unwavering faith. Stars AnnaSophia Robb, Helen Hunt, Dennis Quid and Carrie Underwood.\r\nA champion surfer loses her left arm in a terrifying shark attack, but summons the determination to make an incredible comeback in this inspirational sports drama based on an incredible true story. A lifelong surfer who always felt at home in the sea, Bethany Hamilton (AnnaSophia Robb) honed her surfing skills in Kauai, and went on to compete in numerous surfing competitions. Then, one fateful Halloween morning, the wave-riding teen was taking part in a national surf competition when a 14-foot-long tiger shark emerged from the depths and changed her life in the blink of an eye. By the time Bethany reached shore, her left arm was almost completely gone. But just when it started to look like she would never ride a surfboard again, young Bethany used her faith and determination to reclaim the title of champion while being cheered on by her supportive parents (Dennis Quaid and Helen Hunt), and Sara (Carrie Underwood), the kind-hearted leader of a local youth group.\r\n\r\nSoul Surfer Reviews:\r\n\r\n\"[A] authentic and heartfelt movie....As Bethany recovers from her cataclysmic wound, AnnaSophia Robb's performance comes to life.\" -- Grade: B-- Owen Gleiberman, Entertainment Weekly\r\n\r\n\"SOUL SURFER is the kind of sturdy, satisfying family drama that doesn't get made very often anymore....At crucial moments it shows there's actually a brain behind the camera.\"-- Stephanie Zacharek, Movieline\r\n[IMG]image[/IMG]\r\n\r\nComplete name : Soul Surfer 2011 DVDRip.H263.MP3-ART3MiS.avi\r\nFormat : AVI\r\nFormat/Info : Audio Video Interleave\r\nFormat profile : OpenDML\r\nFile size : 1.22 GiB\r\nDuration : 1h 46mn\r\nOverall bit rate : 1 641 Kbps\r\nWriting application : Lavf52.91.0\r\n\r\nVideo\r\nID : 0\r\nFormat : MPEG-4 Visual\r\nFormat profile : Simple@L1\r\nFormat settings, BVOP : No\r\nFormat settings, QPel : No\r\nFormat settings, GMC : No warppoints\r\nFormat settings, Matrix : Default (H.263)\r\nCodec ID : FMP4\r\nDuration : 1h 46mn\r\nBit rate : 326 Kbps\r\nWidth : 640 pixels\r\nHeight : 264 pixels\r\nDisplay aspect ratio : 2.40:1\r\nFrame rate : 29.970 fps\r\nColor space : YUV\r\nChroma subsampling : 4:2:0\r\nBit depth : 8 bits\r\nScan type : Progressive\r\nCompression mode : Lossy\r\nBits/(Pixel*Frame) : 0.064\r\nStream size : 248 MiB (20%)\r\nWriting library : Lavc52.101.0\r\n\r\nAudio\r\nID : 1\r\nFormat : MPEG Audio\r\nCodec ID : 55\r\nCodec ID/Hint : MP3\r\nDuration : 1h 46mn\r\nBit rate : 128 Kbps\r\nChannel(s) : 2 channels\r\nSampling rate : 44.1 KHz\r\nCompression mode : Lossy\r\nStream size : 17.2 MiB (1%)\r\nAlignment : Aligned on interleaves\r\nInterleave, duration : 32 ms (0.97 video frame)
Info.txt 3.958 KB
Sample.avi 4.203 MB
Soul Surfer 2011 DVDRip.H263.MP3-ART3MiS.avi 1.31 GB
Gathering some info...

Register and log in Isohunt and see no captcha anymore!

4000 symbols left
Hash 33ED8452C9242162D08C182E5A6105CDD483965C

Related torrents for "Soul Surfer 2011 DVDRip H263 MP3-ART3MiS"

Torrent search:

dvdrip 2011