imdb
rating

7.5
Total Recall

Total Recall (1990)

Action, Adventure, Science Fiction

Full description

Total Recall (1990) HDTV[720p] H264[High5.1] mp3[256-48-S] RoSub

Size 4.332 GB   0 seeders     Added 2011-07-13 14:53:27

Stream torrent
Starting‥ You need BitLord! Get it from BitLord.com
10
To download or stream you need BitLord. Visit them at BitLord.com
@@@@@@@@@@@@@@@@@@@@@@@@@@@@@@@@@@@@@@@@@@@@@@@@@@@@@@@@@@@@@@@@@@@@@@@@@@@@@@@@@@@@@@@@@@

   Total Recall (1990)

   Director: Paul Verhoeven

   Stars: Arnold Schwarzenegger
          Sharon Stone
          Michael Ironside

   http://www.imdb.com/title/tt0100802/

@@@@@@@@@@@@@@@@@@@@@@@@@@@@@@@@@@@@@@@@@@@@@@@@@@@@@@@@@@@@@@@@@@@@@@@@@@@@@@@@@@@@@@@@@@

   General

      Complete name : Total.Recall.(1990).HDTV[720p].H264[High5.1].mp3[256-48-S].RoSub.mkv

         MD5: 43d1739bd1ef68d7e67aa8cd7f6b3d31
        SHA1: f620633d4d509b4c157cc01023208d74da24490f
      SHA256: 705bc2b43b4078ec59ba51e626dda76a1f6c10ee4f1cc0f764181907eed1a252

      Size: 4.00 GB (4,298,689,778 bytes)

      Format : Matroska
      File size : 4.00 GiB
      Duration : 1h 53mn
      Overall bit rate : 5 057 Kbps
      Encoded date : UTC 2011-07-13 04:19:56
      Writing application : mkvmerge v4.8.0 ('I Got The...') built on May 24 2011 03:12:58
      Writing library : libebml v1.2.0 + libmatroska v1.1.0
   Video #1
      ID : 1
      Format : AVC
      Format/Info : Advanced Video Codec
      Format profile : High@L5.1
      Format settings, CABAC : Yes
      Format settings, ReFrames : 15 frames
      Muxing mode : Container profile=Unknown@5.1
      Codec ID : V_MPEG4/ISO/AVC
      Duration : 1h 53mn
      Bit rate : 4 700 Kbps
      Nominal bit rate : 4 800 Kbps
      Width : 1 280 pixels
      Height : 688 pixels
      Display aspect ratio : 1.860
      Frame rate : 23.976 fps
      Resolution : 24 bits
      Colorimetry : 4:2:0
      Scan type : Progressive
      Bits/(Pixel*Frame) : 0.223
      Stream size : 3.72 GiB (93%)
      Writing library : x264 core 115 r2008 4c552d8
   Audio #2
      ID : 2
      Format : MPEG Audio
      Format version : Version 1
      Format profile : Layer 3
      Codec ID : A_MPEG/L3
      Codec ID/Hint : MP3
      Duration : 1h 53mn
      Bit rate mode : Constant
      Bit rate : 256 Kbps
      Channel(s) : 2 channels
      Sampling rate : 48.0 KHz
      Resolution : 16 bits
      Stream size : 208 MiB (5%)
   Text #3
      ID : 3
      Format : UTF-8
      Codec ID : S_TEXT/UTF8
      Codec ID/Info : UTF-8 Plain Text
      Language : Romanian

@@@@@@@@@@@@@@@@@@@@@@@@@@@@@@@@@@@@@@@@@@@@@@@@@@@@@@@@@@@@@@@@@@@@@@@@@@@@@@@@@@@@@@@@@@
info.nfo 2.324 KB
Random Snapshots.7z 33.696 MB
Total.Recall.(1990).HDTV[720p].H264[High5.1].mp3[256-48-S].RoSub.mkv 4.299 GB
Gathering some info...

Register and log in Isohunt and see no captcha anymore!

4000 symbols left
Hash FE1EC471333CFAA20A8AD13EE070C89585918FEA

Related torrents for "Total Recall (1990) HDTV[720p] H264[High5.1] mp3[256-48-S] RoSub"

Torrent search:

h264 1990 hdtv hd