imdb
rating

6.6
Friends with Benefits

Friends with Benefits (2011)

Comedy

Full description
quality   telesync dvdrip screener bd

Friends with Benefits 2011 TS XViD - IMAGiNE

Size 1.383 GB   0 seeders     Added 2011-07-14 00:55:50

Stream torrent
Starting‥ You need BitLord! Get it from BitLord.com
6.7
To download or stream you need BitLord. Visit them at BitLord.com
[img]image[/img]


Movie Info: <http: />


Friends with Benefits 2011 TS XViD - IMAGiNE
Movie Information:..:
IMDB::::::::::::::::: http://www.imdb.com/title/tt1632708/
Genre:::::::::::::::: Comedy
Plot::::::::::::::::: While trying to avoid the clichés of Hollywood romantic comedies, Dylan (Timberlake) and Jamie (Kunis) soon discover however that adding the act of sex to their friendship does lead to complications.






[color=yellow]Details:[/color]

Video
ID                               : 0
Format                           : MPEG-4 Visual
Format profile                   : Advanced Simple@L5
Format settings, BVOP            : 2
Format settings, QPel            : No
Format settings, GMC             : No warppoints
Format settings, Matrix          : Default (MPEG)
Muxing mode                      : Packed bitstream
Codec ID                         : XVID
Codec ID/Hint                    : XviD
Duration                         : 1h 44mn
Bit rate                         : 1 636 Kbps
Width                            : 720 pixels
Height                           : 304 pixels
Display aspect ratio             : 2.35:1
Frame rate                       : 25.000 fps
Color space                      : YUV
Chroma subsampling               : 4:2:0
Bit depth                        : 8 bits
Scan type                        : Progressive
Compression mode                 : Lossy
Bits/(Pixel*Frame)               : 0.299
Stream size                      : 1.19 GiB (92%)
Writing library                  : XviD 61

Audio
ID                               : 1
Format                           : MPEG Audio
Format version                   : Version 1
Format profile                   : Layer 3
Mode                             : Joint stereo
Mode extension                   : MS Stereo
Codec ID                         : 55
Codec ID/Hint                    : MP3
Duration                         : 1h 44mn
Bit rate mode                    : Constant
Bit rate                         : 128 Kbps
Channel(s)                       : 2 channels
Sampling rate                    : 44.1 KHz
Compression mode                 : Lossy
Delay relative to video          : 4ms
Stream size                      : 95.2 MiB (7%)
Alignment                        : Split accross interleaves
Interleave, duration             : 40 ms (1.00 video frame)
Interleave, preload duration     : 500 ms


[color=yellow]NOTES:[/color]

IMAGiNE bringing you another release..........

Right video,we were kindly given the source files which were ok but need alot of TLC.The video was filmed at
angle and the borders all round were all slanted etc....the video was washed out and was badly interlaced.
Also contain 5 lines of subs which were hardcoded in russian.
Now work done....first thing was pull the video level and change the perspective,which left us a video with pretty
much straight borders which then were cropped and then resized the video to give it a better AR.
After than we deinterlaced and it still had some faint line in parts so we had to recall it and blend aswell to remove all.
Then we did our normal stuff of tweaking the rgb colours,chroma,brightness,contrast,sharpness etc...
And finally we made a subpack for the non english subs and hardcoded them in yellow.
Audio is very nice LiNE we filtered, synced and muxed to our encode :P
Enjoy folks :)


[color=yellow]GREETS:[/color]

FLAWL3SS,KINOPARK,Rx,ELEKTRI4KA,ADDiCTED,Autotron,CiNEDUB,CRYS,T0XiC,
And to all the other p2p grps past and present 

[COLOR=RED]Looking for these,syncers,cammers,audio,silver supplier.....Have anything to offer????......
Contact us imaginegroup@hushmail.com[/COLOR][/pre]
Friends with Benefits 2011 TS XViD - IMAGiNE.avi 1.383 GB
Friends with Benefits 2011 TS XViD - IMAGiNE.nfo 5.184 KB
readme.txt 6.287 KB
Gathering some info...

Register and log in Isohunt and see no captcha anymore!

4000 symbols left
Hash EF2D271F76668947D227F1A888EE544B83F80063

Related torrents for "Friends with Benefits 2011 TS XViD - IMAGiNE"

Torrent search:

telesync 2011