Shpongle Live at the Roundhouse in London 2008

Size 3.485 GB   7 seeders     Added 2011-07-14 02:41:33

Stream torrent
Starting‥ You need BitLord! Get it from BitLord.com
To download or stream you need BitLord. Visit them at BitLord.com
Another of my bloat reductions Shpongle Live In Concert at the Roundhouse in London 2008 2009 not found in IMDB This movie was only available as an 8 GB ISO file here: http://thepiratebay.org/torrent/5180287 Thanks to JellyHead0012! In this torrent you will find the movie in a 1.88 GB XviD AVI with all DVD extras, including a 45 minute interview with Simon and Raja. The DVD had only a 2 channel stereo audio track, but it is high bitrate and sounds great! bhobson333 July, 2011 ================================================= Release Infos: Release Date: 21.11.09 DVD Date : 02.11.09 Runtime : ca. 256min. Size : 86x100mb Format : PAL-DVD9 Genre : Psychedelic Supplier : Mr.Nice Video : untouched 720x576 Audio : DD 2.0 Extras : untouched Label : Twisted Records CatNr. : TWSDVD002 As an artist, it's always good to challenge yourself... and the thought of translating all the complex layers in a shpongle album into a live show with a band gave me a panic attack and still does! Some songs we couldn't even find, as they were done on old computers that have long been obsolete, soaking up water under a leaky roof in my garage. Pretty early on I realized the secret would be to bring in musicians far better than ourselves and lots of them! Two weeks before the show the band had never even met each other, even though I had recorded some of them individually in my studio for previous Shpongle albums. Pixel Addicts took care of the lights, showing me complicated diagrams on their laptops which I pretended to understand, having no clue how it would actually look on the night. Meanwhile we all rehearsed in a darkened room, with no air or daylight, getting to know each other by smell alone and perhaps sound. Reams of manuscript paper littered the floor, everyone wore ear plugs, and all I could think was 'What the hell am I doing?'. It is a testament to their talent, hard work and skill that you are not holding a blank DVD in your hands right now. We didn't know if we would ever repeat the performance, so recorded it for posterity... Surely only an idiot would actually release their first ever gig though, right? We hope you like it, it was made with love, sweat and laughter... Link: http://www.twistedmusic.com Tracklist: 01 - Ineffable Mysteries 02 - Beija Flor 03 - Dorset Perception 04 - Periscopes of consciousness 05 - I am you 06 - Star Shpongled Banner 07 - My head feels like a frisbee 08 - When shall I be free 09 - No Turn Un-Stoned 10 - Divine moments of truth 11 - Shpongle Interlude. 12 - Nothing is something Worth Doing 13 - Once Upon The Sea of blissful awareness 14 - Around the world in a tea daze 15 - Shpongle Interview 16 - Shpongled with Raja Ram 17 - Event Time Lapse 18 - Live at Rehearsals 19 - Raja's Extra Enjoy this Psychedelic Baby! ================================================= MediaInfo: Complete name : Shpongle_Concert.avi Format : AVI Format/Info : Audio Video Interleave File size : 1.89 GiB Duration : 1h 55mn Overall bit rate : 2 343 Kbps Writing application : VirtualDubMod 1.5.10.2 (build 2540/release) Writing library : VirtualDubMod build 2540/release Video ID : 0 Format : MPEG-4 Visual Format profile : Advanced Simple@L5 Format settings, BVOP : 2 Format settings, QPel : No Format settings, GMC : No warppoints Format settings, Matrix : Default (H.263) Codec ID : XVID Codec ID/Hint : XviD Duration : 1h 55mn Bit rate : 2 013 Kbps Width : 1 088 pixels Height : 592 pixels Display aspect ratio : 16:9 Frame rate : 25.000 fps Color space : YUV Chroma subsampling : 4:2:0 Bit depth : 8 bits Scan type : Progressive Compression mode : Lossy Bits/(Pixel*Frame) : 0.125 Stream size : 1.62 GiB (86%) Writing library : XviD 1.2.1 (UTC 2008-12-04) Audio ID : 1 Format : AC-3 Format/Info : Audio Coding 3 Mode extension : CM (complete main) Codec ID : 2000 Duration : 1h 55mn Bit rate mode : Constant Bit rate : 320 Kbps Channel(s) : 2 channels Channel positions : Front: L R Sampling rate : 48.0 KHz Bit depth : 16 bits Compression mode : Lossy Stream size : 264 MiB (14%) Alignment : Split accross interleaves Interleave, duration : 40 ms (1.00 video frame) Interleave, preload duration : 500 ms
MediaInfo.txt 6.92 KB
ShpongledWithRajaRam.avi 358.406 MB
Shpongle_Concert.avi 2.026 GB
Gathering some info...

Register and log in Isohunt and see no captcha anymore!

4000 symbols left
Hash E550642E7B683B0C457D3C8AB7BD2AD339FDF157

Related torrents for "Shpongle Live at the Roundhouse in London 2008"

Torrent search:

2008