imdb
rating

6.6
Ben Hur

Ben Hur (2010)

Action, Drama, History, Family

Full description
quality   dvdrip x264 dvdr dvd

Ben Hur 2010 PART 1 DVDRip XVID AC3 HQ Hive CM8

Size 1.57 GB   0 seeders     Added 2011-07-15 02:49:55

Stream torrent
Starting‥ You need BitLord! Get it from 1BitLord.com
To download or stream you need BitLord. Visit them at BitLord.com
Ben Hur 2010 PART 1 DVDRip XVID AC3 HQ Hive-CM8\r\n\r\n\r\n\r\n\r\n  \r\n\r\n\r\nThx Hive\r\n\r\n\r\nCM8 Doing It Right The First Time\r\n\r\n\r\nEncode:\r\nwell found an avi rip of that new series in low quality, was looking for the dvd itself,\r\ni found a dvd-5 reencode of it size 4.3gb with 3 audiotracks inside. but its a 4h movie\r\nso you can guess how good the quality is on that shrunk down.\r\nwithout the audio space for the movie is just 3gb. wasnt good enough for me. so i continued searching for the dvd9 and finally found it in france.\r\nthx to warrior btw for getting me the complete full dvd9.\r\nSo i could really do a nice rip with high bitrate as source.\r\n\r\nNow to the Actors, well i know 3 of them right on first sight, the other 2 from movies\r\n\r\nKristin Kreuk: well known from Tv-Series \"Smallville\"\r\nJoseph Morgan: newest actor on The Vampire Diaries as \"Claus\" the Vampire/Werewolf Hybrid\r\nAlex Kingston: actor from \"dr. Who\"\r\nStephen Campbell Moore: played in the movie \"Season of the Witch\"\r\nEmily VanCamp: actor from series \"Everwood\"\r\n\r\nSince it was a 2part movie on the Dvd i am releasing it also in 2 parts since both parts have endcredits.\r\n\r\nSource French DVD-9\r\n\r\nVideo: 720x400 @bitrate 1800 2pass\r\nAudio: English AC3 5.1 @448\r\nSample: yes included\r\nSubs: yes english in srt /subs\r\n\r\n\r\nhttp://www.imdb.com/title/tt1421499/\r\n\r\n\r\nGeneral\r\nComplete name : Ben.Hur.2010.PART.1.DVDRip.XVID.AC3.HQ.Hive-CM8.avi\r\nFormat : AVI\r\nFormat/Info : Audio Video Interleave\r\nFile size : 1.45 GiB\r\nDuration : 1h 32mn\r\nOverall bit rate : 2 254 Kbps\r\nWriting application : Nandub v1.0rc2\r\nWriting library : Nandub build 1853/release\r\n\r\nVideo\r\nID : 0\r\nFormat : MPEG-4 Visual\r\nFormat profile : Advanced Simple@L5\r\nFormat settings, BVOP : 2\r\nFormat settings, QPel : Yes\r\nFormat settings, GMC : No warppoints\r\nFormat settings, Matrix : Default (H.263)\r\nMuxing mode : Packed bitstream\r\nCodec ID : XVID\r\nCodec ID/Hint : XviD\r\nDuration : 1h 32mn\r\nBit rate : 1 797 Kbps\r\nWidth : 720 pixels\r\nHeight : 400 pixels\r\nDisplay aspect ratio : 16:9\r\nFrame rate : 25.000 fps\r\nColor space : YUV\r\nChroma subsampling : 4:2:0\r\nBit depth : 8 bits\r\nScan type : Progressive\r\nCompression mode : Lossy\r\nBits/(Pixel*Frame) : 0.250\r\nStream size : 1.16 GiB (80%)\r\nWriting library : XviD 1.2.1 (UTC 2008-12-04)\r\n\r\nAudio\r\nID : 1\r\nFormat : AC-3\r\nFormat/Info : Audio Coding 3\r\nMode extension : CM (complete main)\r\nCodec ID : 2000\r\nDuration : 1h 32mn\r\nBit rate mode : Constant\r\nBit rate : 448 Kbps\r\nChannel(s) : 6 channels\r\nChannel positions : Front: L C R, Side: L R, LFE\r\nSampling rate : 48.0 KHz\r\nBit depth : 16 bits\r\nCompression mode : Lossy\r\nStream size : 296 MiB (20%)\r\nAlignment : Split accross interleaves\r\nInterleave, duration : 40 ms (1.00 video frame)\r\nInterleave, preload duration : 500 ms\r\n\r\n\r\n\r\n\r\n  \r\n\r\n\r\nJoseph Morgan ... Judah Ben-Hur\r\nStephen Campbell Moore ... Messala\r\nEmily VanCamp ... Esther\r\nKristin Kreuk ... Tirzah\r\nRay Winstone ... Quintus Arrius\r\nBen Cross ... Emperor Tiberius\r\n\r\n\r\n\r\n\r\n  \r\n\r\nAbout the struggle between the Roman Empire and its rebellious conquest Judaea,\r\nand two best friends caught in a terrible moment in history.\r\n\r\n\r\nhi guys if your looking for a good web site to stop off at come along to dij-entertainments.co.uk and see what we got for you there is everything you could ask for and if there isn't then all you have to do is ask and one of our staff will look it up for you. if you pop into shout and say hi you will also get an extra 500 bonus points to help you along so why not come along and see for yourself hope to see you all soon
Ben.Hur.2010.PART.1.DVDRip.XVID.AC3.HQ.Hive-CM8.avi 1.56 GB
Ben.Hur.2010.PART.1.DVDRip.XVID.AC3.HQ.Hive-CM8.nfo 4.946 KB
sample.avi 9.699 MB
Gathering some info...

Register and log in Isohunt and see no captcha anymore!

4000 symbols left
Hash E11798D3450ECDC64AEF3843D30D2A45074AFE78

Related torrents for "Ben Hur 2010 PART 1 DVDRip XVID AC3 HQ Hive CM8"

Torrent search:

dvdrip 2010