Paula

Paula (2011)

Full description
quality   dvdrip x264 hd bd cam

Paula Fernandes Part. Leonardo - India (Ao Vivo 2011 720p AC-3)

Size 157.754 MB   5 seeders     Added 2011-07-16 02:40:42

Stream torrent
Starting‥ You need BitLord! Get it from BitLord.com
To download or stream you need BitLord. Visit them at BitLord.com
Video 
ID : 1 
Format : AVC 
Format/Info : Advanced Video Codec 
Format profile : High@L4.1 
Format settings, CABAC : Yes 
Format settings, ReFrames : 3 frames 
Codec ID : V_MPEG4/ISO/AVC 
Duration : 3mn 35s 
Bit rate mode : Variable 
Bit rate : 5 093 Kbps 
Maximum bit rate : 40.0 Mbps 
Width : 1 280 pixels 
Height : 720 pixels 
Display aspect ratio : 16:9 
Frame rate : 23.976 fps 
Color space : YUV 
Chroma subsampling : 4:2:0 
Bit depth : 8 bits 
Scan type : Progressive 
Bits/(Pixel*Frame) : 0.230 
Stream size : 131 MiB (87%) 
Language : English 
Color primaries : BT.709-5, BT.1361, IEC 61966-2-4, SMPTE RP177 
Transfer characteristics : BT.709-5, BT.1361 
Matrix coefficients : BT.709-5, BT.1361, IEC 61966-2-4 709, SMPTE RP177 
Audio 
ID : 2 
Format : AC-3 
Format/Info : Audio Coding 3 
Mode extension : CM (complete main) 
Codec ID : A_AC3 
Duration : 3mn 35s 
Bit rate mode : Constant 
Bit rate : 640 Kbps 
Channel(s) : 6 channels 
Channel positions : Front: L C R, Side: L R, LFE 
Sampling rate : 48.0 KHz 
Bit depth : 16 bits 
Compression mode : Lossy 
Stream size : 16.5 MiB (11%) 
Language : Portuguese 
CONTINUE SEMEANDO (SEED) AO TERMINAR!
 
Paula Fernandes Part. Leonardo - Índia (Ao Vivo 2011 720p AC-3).mkv 157.754 MB
Gathering some info...

Register and log in Isohunt and see no captcha anymore!

4000 symbols left
Hash 33A99295A37C784758273D6D230ADC0640F2F043

Related torrents for "Paula Fernandes Part. Leonardo - India (Ao Vivo 2011 720p AC-3)"

Torrent search:

hd 2011