imdb
rating

7.4
Bound

Bound (1996)

Crime, Drama, Thriller, Romance

Full description
quality   x264 hd bd fullhd dvdrip h264 hdtv

Eminem - Space Bound 1080p Anky

Size 77.651 MB   0 seeders     Added 2011-07-17 02:40:13

Stream torrent
Starting‥ You need BitLord! Get it from 1BitLord.com
10
To download or stream you need BitLord. Visit them at BitLord.com
General Eminem - Space Bound 1080p Anky.mp4 Format : MPEG-4 Format profile : Base Media / Version 2 Codec ID : mp42 File size : 74.1 MiB Duration : 4mn 24s Overall bit rate : 2 349 Kbps Video ID : 1 Format : AVC Format/Info : Advanced Video Codec Format profile : High@L4.0 Format settings, CABAC : Yes Format settings, ReFrames : 1 frame Codec ID : avc1 Codec ID/Info : Advanced Video Coding Duration : 4mn 24s Bit rate mode : Variable Bit rate : 2 191 Kbps Maximum bit rate : 5 204 Kbps Width : 1 920 pixels Height : 1 080 pixels Display aspect ratio : 16:9 Frame rate mode : Variable Frame rate : 23.976 fps Minimum frame rate : 17.241 fps Maximum frame rate : 24.390 fps Resolution : 24 bits Colorimetry : 4:2:0 Scan type : Progressive Bits/(Pixel*Frame) : 0.044 Stream size : 69.1 MiB (93%) Audio ID : 2 Format : AAC Format/Info : Advanced Audio Codec Format version : Version 4 Format profile : LC Format settings, SBR : No Codec ID : 40 Duration : 4mn 24s Bit rate mode : Variable Bit rate : 152 Kbps Maximum bit rate : 182 Kbps Channel(s) : 2 channels Channel positions : L R Sampling rate : 44.1 KHz Resolution : 16 bits Stream size : 4.79 MiB (6%) image image image
anky.txt 115 B
Eminem - Space Bound 1080p Anky.mp4 77.651 MB
Gathering some info...

Register and log in Isohunt and see no captcha anymore!

4000 symbols left
Hash 994486DC72FAA84E300A3A410660FB6903A704DA

Related torrents for "Eminem - Space Bound 1080p Anky"

Torrent search:

fullhd