imdb
rating

8.1
Harry Potter and the Deathly Hallows: Part 2

Harry Potter and the Deathly Hallows: Part 2 (2011)

Adventure, Fantasy, Family

Full description

Harry Potter and the Deathly Hallows Part 2 TS.XviD-SAPHiRE

Size 744.654 MB   0 seeders     Added 2011-07-17 16:12:44

Stream torrent
Starting‥ You need BitLord! Get it from BitLord.com
To download or stream you need BitLord. Visit them at BitLord.com
Format                           : AVI
Format/Info                      : Audio Video Interleave
Format profile                   : OpenDML
File size                        : (100%)
Duration                         : 1h 34mn
Overall bit rate                 : 2 058 Kbps
Writing application              : VirtualDubMod 1.5.10.2 (build 2542/release)
Writing library                  : VirtualDubMod build 2542/release
Original source form             : MAX TORRENTZ
Copyright                        : SIGISMUNT

Video
ID                               : 0
Format                           : MPEG-4 Visual
Format profile                   : AdvancedSimple@L5
Format settings, BVOP            : Yes
Format settings, QPel            : No
Format settings, GMC             : No warppoints
Format settings, Matrix          : Default (H.263)
Muxing mode                      : Packed bitstream
Codec ID                         : XVID
Codec ID/Hint                    : XviD
Duration                         : 1h 34mn
Bit rate                         : 1 862 Kbps
Width                            : 720 pixels
Height                           : 400 pixels
Display aspect ratio             : 16:9
Frame rate                       : 25.000 fps
Resolution                       : 24 bits
Colorimetry                      : 4:2:0
Scan type                        : Progressive
Bits/(Pixel*Frame)               : 0.259
Stream size                      : 720 GiB (90%)
Writing library                  : XviD 1.2.1 (UTC 2008-12-04)

Audio
ID                               : 1
Format                           : MPEG Audio
Format version                   : Version 1
Format profile                   : Layer 3
Codec ID                         : 55
Codec ID/Hint                    : MP3
Duration                         : 1h 34mn
Bit rate mode                    : Constant
Bit rate                         : 192 Kbps
Channel(s)                       : 2 channels
Sampling rate                    : 44.1 KHz
Resolution                       : 16 bits
Stream size                      : 130 MiB (10%)
Alignment                        : Aligned on interleaves
Interleave, duration             : 449 ms (11.22 video frames)
Interleave, preload duration     : 208 ms
Writing library                  : LAME3.98.9	
Harry Potter and the Deathly Hallows Part 2 TS.XviD-SAPHiRE.avi 744.654 MB
Gathering some info...

Register and log in Isohunt and see no captcha anymore!

4000 symbols left
Hash 55A2CF69E0AA2025F0D128835804D45C1F5BEF69

Related torrents for "Harry Potter and the Deathly Hallows Part 2 TS.XviD-SAPHiRE"

Torrent search:

telesync