imdb
rating

5.1
Game

Game (2011)

Mystery, Thriller, Foreign

Full description
quality   dvdrip hdtv screener x264 hd

Game 2011 DVDRIP Xvid AC3 5 1 BHRG

Size 2.053 GB   0 seeders     Added 2011-07-18 02:42:04

Stream torrent
Starting‥ You need BitLord! Get it from BitLord.com
To download or stream you need BitLord. Visit them at BitLord.com
Please visit us at remix-extreme.me thank you  :yes: \r\n\r\nGame 2011 DVDRIP Xvid AC3 5.1-BHRG\r\n\r\nFile size : 1.89 GiB\r\nDuration : 2h 14mn\r\nOverall bit rate : 2 008 Kbps\r\n\r\nVideo\r\nID : 0\r\nFormat : MPEG-4 Visual\r\nFormat profile : Advanced Simple@L5\r\nFormat settings, BVOP : 2\r\nFormat settings, QPel : No\r\nFormat settings, GMC : No warppoints\r\nFormat settings, Matrix : Default (H.263)\r\nCodec ID : XVID\r\nCodec ID/Hint : XviD\r\nDuration : 2h 14mn\r\nBit rate : 1 616 Kbps\r\nWidth : 720 pixels\r\nHeight : 304 pixels\r\nDisplay aspect ratio : 2.35:1\r\nFrame rate : 23.976 fps\r\nColor space : YUV\r\nChroma subsampling : 4:2:0\r\nBit depth : 8 bits\r\nScan type : Progressive\r\nCompression mode : Lossy\r\nBits/(Pixel*Frame) : 0.308\r\nStream size : 1.52 GiB (80%)\r\nWriting library : XviD 1.2.1 (UTC 2008-12-04)\r\n\r\nAudio\r\nID : 1\r\nFormat : AC-3\r\nFormat/Info : Audio Coding 3\r\nMode extension : CM (complete main)\r\nCodec ID : 2000\r\nDuration : 2h 14mn\r\nBit rate mode : Constant\r\nBit rate : 384 Kbps\r\nChannel(s) : 6 channels\r\nChannel positions : Front: L C R, Side: L R, LFE\r\nSampling rate : 48.0 KHz\r\nBit depth : 16 bits\r\nCompression mode : Lossy\r\nStream size : 371 MiB (19%)\r\nAlignment : Aligned on interleaves\r\nInterleave, duration : 64 ms (1.53 video frames)\r\nInterleave, preload duration : 192 ms\r\nTitle : VTS_01_1 T80 3_2ch 384Kbps DELAY 0ms_new\r\n\r\nThis is customised subs for hindi parts ie english when needed and only 1 out there like it.\r\n\r\nI removed over 500 english lines that where not required as speaking english and therefore not needed hardcoded!
Game 2011 Custom English Subs when needed.avi 2.031 GB
Game 2011 Sample.avi 21.483 MB
Gathering some info...

Register and log in Isohunt and see no captcha anymore!

4000 symbols left
Hash 7BCBEE4129B014AACC1A45852B820A386563AB20

Related torrents for "Game 2011 DVDRIP Xvid AC3 5 1 BHRG"

Torrent search:

dvdrip 2011