imdb
rating

7.0
Conan O'Brien Can't Stop

Conan O'Brien Can't Stop (2011)

Comedy, Documentary, Music

Full description
quality   hdtv dvdrip bd x264 fullhd h264 hd

Conan OBrien Cant Stop (2011) DVDRip XviD-MAX

Size 1.06 GB   0 seeders     Added 2011-07-18 23:01:42

Stream torrent
Starting‥ You need BitLord! Get it from 1BitLord.com
To download or stream you need BitLord. Visit them at BitLord.com
Conan OBrien Cant Stop (2011) DVDRip XviD-MAX

Format : AVI

Format/Info : Audio Video Interleave

Format profile : OpenDML

File size : 1010 MB

Duration : 1h 45mn

Overall bit rate : 1 990 Kbps

Writing application : VirtualDubMod 1.5.10.2 (build 2542/release)

Writing library : VirtualDubMod build 2542/release

Original source form : MAX TORRENTZ

Copyright : SIGISMUNT

Video

ID : 0

Format : MPEG-4 Visual

Format profile : AdvancedSimple@L5

Format settings, BVOP : Yes

Format settings, QPel : No

Format settings, GMC : No warppoints

Format settings, Matrix : Default (H.263)

Codec ID : XVID

Codec ID/Hint : XviD

Duration : 1h 45mn

Bit rate : 1 537 Kbps

Width : 720 pixels

Height : 384 pixels

Display aspect ratio : 1.875

Frame rate : 23.976 fps

Resolution : 24 bits

Colorimetry : 4:2:0

Scan type : Progressive

Bits/(Pixel*Frame) : 0.232

Stream size : 1.14 GiB (77%)

Writing library : XviD 1.2.1 (UTC 2008-12-04)

Audio

ID : 1

Format : AC-3

Format/Info : Audio Coding 3

Codec ID : 2000

Duration : 1h 45mn

Bit rate mode : Constant

Bit rate : 448 Kbps

Channel(s) : 6 channels

Channel positions : Front: L C R, Surround: L R, LFE

Sampling rate : 48.0 KHz

Stream size : 339 MiB (23%)

Alignment : Aligned on interleaves

Interleave, duration : 64 ms (1.53 video frames)

Interleave, preload duration : 192 ms

http://www.imdb.com/title/tt1864288/

Source: DVD (perfect a/v/synn quality,sample included)

Thanks for waiting a better quality than 700mb DEFACED as usual bad encodes

This release is not seedbox supported , please seed it to the MAX

How To Get Your Maxspeed (uTorrent)

Torrent Client - Preferences - Bandwidth - Number of connections - Set aprox. 500 for each

Torrent Client - Preferences - BiTorrent - Protocol Encryption - Forced

Bandwidth Allocation - High (Set download/upload limit - Unlimited)

Stop Other Active Torrents - Start downloading and wait for connections.

Enjoy and Seed for at least 1:1 ratio. Don't forget to say thanks/leave reviews.

Before downloading you should check/google search sample "release name""sample".

Greets to all actual/future p2p/scene QUALITY groups and affiliate websites.

Don't trust IMDb robot or bad ratings,always watch some trailers first.

Ignore stupid comments/fake/mislabeled/no-DVDrips/CAM/TS/RAR uploads.

Please spread this release/torrent to your friends/forums/etc.

If you need translation subs visit some subtitles sites.

Report if you see online streaming or other spam links.

Recommended movie player VLC PLAYER.
Budget seedboxs.txt 44 B
Conan OBrien Cant Stop (2011) DVDRip XviD-MAX/Conan OBrien Cant Stop (2011) DVDRip XviD-MAX.avi 1.059 GB
dreamthe.net.txt 93 B
Gathering some info...

Register and log in Isohunt and see no captcha anymore!

4000 symbols left
Hash C991BAF4176CB34B369DD08FD057789920A32B1E

Related torrents for "Conan OBrien Cant Stop (2011) DVDRip XviD-MAX"

Torrent search:

dvdrip 2011