Eluveitie-Inis Mona x264 Anky

Size 71.179 MB   0 seeders     Added 2011-07-19 02:39:32

Stream torrent
Starting‚Ä• You need BitLord! Get it from BitLord.com
To download or stream you need BitLord. Visit them at BitLord.com
General
Complete name : eluveitie-inis_mona-dvdrip-x264 by anky.mkv
Format : Matroska
File size : 67.9 MiB
Duration : 4mn 13s
Overall bit rate : 2 243 Kbps
Video
ID : 1
Format : AVC
Format/Info : Advanced Video Codec
Format profile : Main@L5.1
Format settings, CABAC : Yes
Format settings, ReFrames : 6 frames
Muxing mode : Container profile=Unknown@5.1
Codec ID : V_MPEG4/ISO/AVC
Duration : 4mn 13s
Bit rate : 1 973 Kbps
Width : 704 pixels
Height : 384 pixels
Display aspect ratio : 16:9
Frame rate : 25.000 fps
Resolution : 24 bits
Colorimetry : 4:2:0
Scan type : Progressive
Bits/(Pixel*Frame) : 0.292
Stream size : 59.7 MiB (88%)
Audio
ID : 2
Format : MPEG Audio
Format version : Version 1
Format profile : Layer 3
Codec ID : A_MPEG/L3
Codec ID/Hint : MP3
Duration : 4mn 13s
Bit rate mode : Variable
Bit rate : 225 Kbps
Minimum bit rate : 32.0 Kbps
Channel(s) : 2 channels
Sampling rate : 44.1 KHz
Resolution : 16 bits
Stream size : 6.82 MiB (10%)
Title : Eluveitie - Inis Mona
Writing library : LAME3.97
Language : English
ScreenShots
[img]image[/img]
[img]image[/img]
[img]image[/img]
Hope You Like It !!
ankyGautam 
anky.txt 115 B
eluveitie-inis mona x264 anky.mkv 71.179 MB
Gathering some info...

Register and log in Isohunt and see no captcha anymore!

4000 symbols left
Hash 4651DEEBD1305C269B3F7AD7FAB443D167B2953C