imdb
rating

6.6
Operation Crossbow

Operation Crossbow (1965)

Action, Thriller, War

Full description
quality   x264 hd bd fullhd dvdrip

Rio PROPER 1080p BluRay x264 CROSSBOW

Size 7.112 GB   0 seeders     Added 2011-07-19 20:54:30

Stream torrent
Starting‥ You need BitLord! Get it from BitLord.com
To download or stream you need BitLord. Visit them at BitLord.com
Rio (2011)

IMDb: http://www.imdb.com/title/tt1436562/
IMDb Trailer: http://www.imdb.com/video/imdb/vi470260249/

Rating: 7.1/10 (21,159 votes)

Video
 
     ID :     1  
     Format :     AVC  
     Format/Info :     Advanced Video Codec  
     Format profile :     High@L4.1  
     Format settings, CABAC :     Yes  
     Format settings, ReFrames :     5 frames  
     Codec ID :     V_MPEG4/ISO/AVC  
     Duration :     1h 26mn  
     Bit rate :     9 332 Kbps  
     Width :     1 920 pixels  
     Height :     800 pixels  
     Display aspect ratio :     2.40:1  
     Frame rate :     23.976 fps  
     Color space :     YUV  
     Chroma subsampling :     4:2:0  
     Bit depth :     8 bits  
     Scan type :     Progressive  
     Bits/(Pixel*Frame) :     0.253  
     Stream size :     5.51 GiB (84%)  
     Writing library :     x264 core 116 r2019 9cc407d  
     Encoding settings :     cabac=1 / ref=5 / deblock=1:0:0 / analyse=0x3:0x133 / me=umh / subme=7 / psy=1 / psy_rd=1.00:0.00 / mixed_ref=1 / me_range=16 / chroma_me=1 / trellis=1 / 8x8dct=1 / cqm=0 / deadzone=21,11 / fast_pskip=0 / chroma_qp_offset=-2 / threads=12 / sliced_threads=0 / nr=0 / decimate=1 / interlaced=0 / bluray_compat=0 / constrained_intra=0 / bframes=3 / b_pyramid=2 / b_adapt=1 / b_bias=0 / direct=1 / weightb=1 / open_gop=0 / weightp=2 / keyint=250 / keyint_min=23 / scenecut=40 / intra_refresh=0 / rc_lookahead=40 / rc=2pass / mbtree=1 / bitrate=9332 / ratetol=1.0 / qcomp=0.60 / qpmin=0 / qpmax=69 / qpstep=4 / cplxblur=20.0 / qblur=0.5 / ip_ratio=1.40 / aq=1:1.00  
     Language :     English

Audio
 
     ID :     2  
     Format :     DTS  
     Format/Info :     Digital Theater Systems  
     Codec ID :     A_DTS  
     Duration :     1h 26mn  
     Bit rate mode :     Constant  
     Bit rate :     1 510 Kbps  
     Channel(s) :     6 channels  
     Channel positions :     Front: L C R, Side: L R, LFE  
     Sampling rate :     48.0 KHz  
     Bit depth :     24 bits  
     Compression mode :     Lossy  
     Stream size :     935 MiB (14%)  
     Language :     English

Text
 
     ID :     3  
     Format :     UTF-8  
     Codec ID :     S_TEXT/UTF8  
     Codec ID/Info :     UTF-8 Plain Text  
     Language :     English


When Blu, a domesticated macaw from small-town Minnesota, meets the fiercely independent Jewel, he takes off on an adventure to Rio de Janeiro with this bird of his dreams.
crossbow-rio.proper.1080.mkv 7.039 GB
crossbow-rio.proper.1080.nfo 478 B
Sample/crossbow-rio.proper.1080-sample.mkv 73.177 MB
Gathering some info...

Register and log in Isohunt and see no captcha anymore!

4000 symbols left
Hash 94DEAA7738D455A0C777816FFBCB5E45BB9504C8

Related torrents for "Rio PROPER 1080p BluRay x264 CROSSBOW"

Torrent search:

x264 fullhd bd