Jumping the Broom 2011 BRRiP XViD AC3 - IMAGiNE

Size 1.789 GB   0 seeders     Added 2011-07-22 04:39:24

Stream torrent
Starting‥ You need BitLord! Get it from BitLord.com
To download or stream you need BitLord. Visit them at BitLord.com
    *********** ****    ****      ***      ******** *********** ****    *** **********
           *+*     +*+*+* *+*+*+   *+* *+*   *+*    *+*    *+*     *+*+*   *+* *+*        
           +*+     +*+ +*+*+ +*+  +*+   +*+  +*+           +*+     *+*+*+  +*+ +*+        
           +$+     +$+  +*+  +$+ +$++*++$++* *$*           +$+     +$+ +*+ +$+ +$++*++$  
           +$+     +$+       +$+ +$+     +$+ +$+   +$+$    +$+     +$+  +$+$+$ +$+        
           $+$     $+$       $+$ $+$     $+$ $+$    $+$    $+$     $+$   $+$+$ $+$        
       $$$$$$$$$$$ $$$       $$$ $$$     $$$  $$$$$$$$ $$$$$$$$$$$ $$$    $$$$ $$$$$$$$$$     
                                                



                           Another Fine Release Brought to you from - IMAGiNE                   
                                                 

********************************************************************************************************************                                
                            Jumping the Broom 2011 BRRiP XViD AC3 - IMAGiNE
********************************************************************************************************************

Ripper ...........: IMAGiNE                                        IMDB Rating.......:3.9/10                             
Video Codec.......: XVID                                         Release Date......:19/07/11
Audio Codec.......:AC3                                           Theatre Date......:06/05/11
Audio Bitrate.....:256                                              Runtime.......:1h 52mn
Subtitles.........:NIL                                          Language..........:ENGLISH
Resolution...... 720 x 400                                      IMDb URL..........:http://www.imdb.com/title/tt1640484/


[color=yellow]DETAILS:[/color]

Video
ID                               : 0
Format                           : MPEG-4 Visual
Format profile                   : Advanced Simple@L5
Format settings, BVOP            : 2
Format settings, QPel            : No
Format settings, GMC             : No warppoints
Format settings, Matrix          : Default (MPEG)
Muxing mode                      : Packed bitstream
Codec ID                         : XVID
Codec ID/Hint                    : XviD
Duration                         : 1h 52mn
Bit rate                         : 1 845 Kbps
Width                            : 720 pixels
Height                           : 400 pixels
Display aspect ratio             : 16:9
Frame rate                       : 23.976 fps
Color space                      : YUV
Chroma subsampling               : 4:2:0
Bit depth                        : 8 bits
Scan type                        : Progressive
Compression mode                 : Lossy
Bits/(Pixel*Frame)               : 0.267
Stream size                      : 1.45 GiB (87%)
Writing library                  : XviD 64

Audio
ID                               : 1
Format                           : AC-3
Format/Info                      : Audio Coding 3
Mode extension                   : CM (complete main)
Codec ID                         : 2000
Duration                         : 1h 52mn
Bit rate mode                    : Constant
Bit rate                         : 256 Kbps
Channel(s)                       : 6 channels
Channel positions                : Front: L C R, Side: L R, LFE
Sampling rate                    : 48.0 KHz
Bit depth                        : 16 bits
Compression mode                 : Lossy
Stream size                      : 206 MiB (12%)
Alignment                        : Aligned on interleaves
Interleave, duration             : 42 ms (1.00 video frame)




[color=yellow]SOURCES:[/color]

VIDEO:...........Jumping.the.Broom.2011.BluRay.720p.DTS.x264-CHD
AUDIO:...........Jumping.the.Broom.2011.BluRay.720p.DTS.x264-CHD Thanx :D

[color=yellow]NOTES:[/color]

IMAGiNE bringing you another release..........
Jumping The Broom BRRiP...........
Heres a nice brrip, not much needed so not much to say
resize this convert that remux to here and there ya go :P
Enjoy!


[color=yellow]SCREENS:[/color]

[IMG]image[/IMG]
[IMG]image[/IMG]
[IMG]image[/IMG]
Jumping the Broom 2011 BRRiP XViD AC3-IMAGiNE - instantfreemovies.net/Jumping the Broom 2011 BRRiP XViD AC3 - IMAGiNE.avi 1.779 GB
Jumping the Broom 2011 BRRiP XViD AC3-IMAGiNE - instantfreemovies.net/Jumping the Broom 2011 BRRiP XViD AC3 - IMAGiNE SAMPLE.avi 10.027 MB
Jumping the Broom 2011 BRRiP XViD AC3-IMAGiNE - instantfreemovies.net/Jumping the Broom 2011 BRRiP XViD AC3 - IMAGiNE.nfo 4.736 KB
Gathering some info...

Register and log in Isohunt and see no captcha anymore!

4000 symbols left
Hash 48f72768d348974a2693a221ad066111a3b841f7

Related torrents for "Jumping the Broom 2011 BRRiP XViD AC3 - IMAGiNE"

Torrent search:

bd 2011