Anggun - Snow On The Sahara (EAC-CUE-LOG-FLAC)

Size 295.968 MB   0 seeders     Added 2011-07-24 02:43:43

Stream torrent
Starting‥ You need BitLord! Get it from 1BitLord.com
10
To download or stream you need BitLord. Visit them at BitLord.com
[CODE]Exact Audio Copy V0.99 prebeta 5 from 4. May 2009\r\n\r\nEAC extraction logfile from 22. July 2011, 22:54\r\n\r\nAnggun / Snow On The Sahara\r\n\r\nUsed drive  : PLEXTOR DVDR   PX-880SA   Adapter: 2  ID: 2\r\n\r\nRead mode               : Secure\r\nUtilize accurate stream : Yes\r\nDefeat audio cache      : Yes\r\nMake use of C2 pointers : No\r\n\r\nRead offset correction                      : 6\r\nOverread into Lead-In and Lead-Out          : No\r\nFill up missing offset samples with silence : Yes\r\nDelete leading and trailing silent blocks   : No\r\nNull samples used in CRC calculations       : Yes\r\nUsed interface                              : Installed external ASPI interface\r\nGap handling                                : Appended to previous track\r\n\r\nUsed output format : Internal WAV Routines\r\nSample format      : 44.100 Hz; 16 Bit; Stereo\r\n\r\n\r\nTOC of the extracted CD\r\n\r\n     Track |   Start  |  Length  | Start sector | End sector \r\n    ---------------------------------------------------------\r\n        1  |  0:00.00 |  4:19.72 |         0    |    19496   \r\n        2  |  4:19.72 |  3:14.65 |     19497    |    34111   \r\n        3  |  7:34.62 |  3:33.63 |     34112    |    50149   \r\n        4  | 11:08.50 |  4:27.62 |     50150    |    70236   \r\n        5  | 15:36.37 |  4:36.33 |     70237    |    90969   \r\n        6  | 20:12.70 |  4:41.57 |     90970    |   112101   \r\n        7  | 24:54.52 |  2:23.40 |    112102    |   122866   \r\n        8  | 27:18.17 |  4:12.53 |    122867    |   141819   \r\n        9  | 31:30.70 |  4:03.45 |    141820    |   160089   \r\n       10  | 35:34.40 |  4:18.02 |    160090    |   179441   \r\n       11  | 39:52.42 |  4:13.33 |    179442    |   198449   \r\n\r\n\r\nTrack  1\r\n\r\n     Filename E:\\Music\\FLAC\\Anggun - Snow On The Sahara\\Snow On The Sahara.wav\r\n\r\n     Pre-gap length  0:00:02.00\r\n\r\n     Peak level 100.0 %\r\n     Track quality 100.0 %\r\n     Test CRC 555AFE34\r\n     Copy CRC 555AFE34\r\n     Accurately ripped (confidence 19)  [8FCCEED6]\r\n     Copy OK\r\n\r\nTrack  2\r\n\r\n     Filename E:\\Music\\FLAC\\Anggun - Snow On The Sahara\\Over Their Walls.wav\r\n\r\n     Pre-gap length  0:00:02.00\r\n\r\n     Peak level 100.0 %\r\n     Track quality 100.0 %\r\n     Test CRC 7BDE2CCC\r\n     Copy CRC 7BDE2CCC\r\n     Accurately ripped (confidence 17)  [9CB6A1A1]\r\n     Copy OK\r\n\r\nTrack  3\r\n\r\n     Filename E:\\Music\\FLAC\\Anggun - Snow On The Sahara\\On The Breath Of An Angel.wav\r\n\r\n     Pre-gap length  0:00:02.00\r\n\r\n     Peak level 93.0 %\r\n     Track quality 99.9 %\r\n     Test CRC B7A1126D\r\n     Copy CRC B7A1126D\r\n     Accurately ripped (confidence 16)  [A2AF6EE6]\r\n     Copy OK\r\n\r\nTrack  4\r\n\r\n     Filename E:\\Music\\FLAC\\Anggun - Snow On The Sahara\\A Rose In The Wind.wav\r\n\r\n     Pre-gap length  0:00:02.00\r\n\r\n     Peak level 100.0 %\r\n     Track quality 100.0 %\r\n     Test CRC 4B084F67\r\n     Copy CRC 4B084F67\r\n     Accurately ripped (confidence 15)  [4809E57A]\r\n     Copy OK\r\n\r\nTrack  5\r\n\r\n     Filename E:\\Music\\FLAC\\Anggun - Snow On The Sahara\\My Sensual Mind.wav\r\n\r\n     Pre-gap length  0:00:02.00\r\n\r\n     Peak level 97.7 %\r\n     Track quality 100.0 %\r\n     Test CRC 43EED693\r\n     Copy CRC 43EED693\r\n     Accurately ripped (confidence 16)  [3537BBFB]\r\n     Copy OK\r\n\r\nTrack  6\r\n\r\n     Filename E:\\Music\\FLAC\\Anggun - Snow On The Sahara\\Valparaíso.wav\r\n\r\n     Pre-gap length  0:00:02.00\r\n\r\n     Peak level 100.0 %\r\n     Track quality 100.0 %\r\n     Test CRC B6B08F2A\r\n     Copy CRC B6B08F2A\r\n     Accurately ripped (confidence 16)  [C7883D67]\r\n     Copy OK\r\n\r\nTrack  7\r\n\r\n     Filename E:\\Music\\FLAC\\Anggun - Snow On The Sahara\\Selamanya.wav\r\n\r\n     Pre-gap length  0:00:02.00\r\n\r\n     Peak level 77.8 %\r\n     Track quality 100.0 %\r\n     Test CRC 7D9DB6C4\r\n     Copy CRC 7D9DB6C4\r\n     Accurately ripped (confidence 16)  [12D591A1]\r\n     Copy OK\r\n\r\nTrack  8\r\n\r\n     Filename E:\\Music\\FLAC\\Anggun - Snow On The Sahara\\By The Moon.wav\r\n\r\n     Pre-gap length  0:00:02.00\r\n\r\n     Peak level 98.1 %\r\n     Track quality 99.9 %\r\n     Test CRC 1BC9A148\r\n     Copy CRC 1BC9A148\r\n     Accurately ripped (confidence 17)  [BB243AC9]\r\n     Copy OK\r\n\r\nTrack  9\r\n\r\n     Filename E:\\Music\\FLAC\\Anggun - Snow On The Sahara\\Dream Of Me.wav\r\n\r\n     Pre-gap length  0:00:02.00\r\n\r\n     Peak level 100.0 %\r\n     Track quality 100.0 %\r\n     Test CRC 89C83858\r\n     Copy CRC 89C83858\r\n     Accurately ripped (confidence 16)  [B9A96D62]\r\n     Copy OK\r\n\r\nTrack 10\r\n\r\n     Filename E:\\Music\\FLAC\\Anggun - Snow On The Sahara\\Secret Of The Sea.wav\r\n\r\n     Pre-gap length  0:00:02.00\r\n\r\n     Peak level 96.8 %\r\n     Track quality 99.9 %\r\n     Test CRC D8B87D6A\r\n     Copy CRC D8B87D6A\r\n     Accurately ripped (confidence 17)  [2D181662]\r\n     Copy OK\r\n\r\nTrack 11\r\n\r\n     Filename E:\\Music\\FLAC\\Anggun - Snow On The Sahara\\Life On Mars .wav\r\n\r\n     Pre-gap length  0:00:02.00\r\n\r\n     Peak level 99.9 %\r\n     Track quality 100.0 %\r\n     Test CRC 4A1F9B34\r\n     Copy CRC 4A1F9B34\r\n     Accurately ripped (confidence 17)  [E4CF8A42]\r\n     Copy OK\r\n\r\n\r\nAll tracks accurately ripped\r\n\r\nNo errors occurred\r\n\r\nEnd of status report\r\nExact Audio Copy V0.99 prebeta 5 from 4. May 2009\r\n\r\nEAC extraction logfile from 22. July 2011, 22:54\r\n\r\nAnggun / Snow On The Sahara\r\n\r\nUsed drive  : PLEXTOR DVDR   PX-880SA   Adapter: 2  ID: 2\r\n\r\nRead mode               : Secure\r\nUtilize accurate stream : Yes\r\nDefeat audio cache      : Yes\r\nMake use of C2 pointers : No\r\n\r\nRead offset correction                      : 6\r\nOverread into Lead-In and Lead-Out          : No\r\nFill up missing offset samples with silence : Yes\r\nDelete leading and trailing silent blocks   : No\r\nNull samples used in CRC calculations       : Yes\r\nUsed interface                              : Installed external ASPI interface\r\nGap handling                                : Appended to previous track\r\n\r\nUsed output format : Internal WAV Routines\r\nSample format      : 44.100 Hz; 16 Bit; Stereo\r\n\r\n\r\nTOC of the extracted CD\r\n\r\n     Track |   Start  |  Length  | Start sector | End sector \r\n    ---------------------------------------------------------\r\n        1  |  0:00.00 |  4:19.72 |         0    |    19496   \r\n        2  |  4:19.72 |  3:14.65 |     19497    |    34111   \r\n        3  |  7:34.62 |  3:33.63 |     34112    |    50149   \r\n        4  | 11:08.50 |  4:27.62 |     50150    |    70236   \r\n        5  | 15:36.37 |  4:36.33 |     70237    |    90969   \r\n        6  | 20:12.70 |  4:41.57 |     90970    |   112101   \r\n        7  | 24:54.52 |  2:23.40 |    112102    |   122866   \r\n        8  | 27:18.17 |  4:12.53 |    122867    |   141819   \r\n        9  | 31:30.70 |  4:03.45 |    141820    |   160089   \r\n       10  | 35:34.40 |  4:18.02 |    160090    |   179441   \r\n       11  | 39:52.42 |  4:13.33 |    179442    |   198449   \r\n\r\n\r\nTrack  1\r\n\r\n     Filename E:\\Music\\FLAC\\Anggun - Snow On The Sahara\\Snow On The Sahara.wav\r\n\r\n     Pre-gap length  0:00:02.00\r\n\r\n     Peak level 100.0 %\r\n     Track quality 100.0 %\r\n     Test CRC 555AFE34\r\n     Copy CRC 555AFE34\r\n     Accurately ripped (confidence 19)  [8FCCEED6]\r\n     Copy OK\r\n\r\nTrack  2\r\n\r\n     Filename E:\\Music\\FLAC\\Anggun - Snow On The Sahara\\Over Their Walls.wav\r\n\r\n     Pre-gap length  0:00:02.00\r\n\r\n     Peak level 100.0 %\r\n     Track quality 100.0 %\r\n     Test CRC 7BDE2CCC\r\n     Copy CRC 7BDE2CCC\r\n     Accurately ripped (confidence 17)  [9CB6A1A1]\r\n     Copy OK\r\n\r\nTrack  3\r\n\r\n     Filename E:\\Music\\FLAC\\Anggun - Snow On The Sahara\\On The Breath Of An Angel.wav\r\n\r\n     Pre-gap length  0:00:02.00\r\n\r\n     Peak level 93.0 %\r\n     Track quality 99.9 %\r\n     Test CRC B7A1126D\r\n     Copy CRC B7A1126D\r\n     Accurately ripped (confidence 16)  [A2AF6EE6]\r\n     Copy OK\r\n\r\nTrack  4\r\n\r\n     Filename E:\\Music\\FLAC\\Anggun - Snow On The Sahara\\A Rose In The Wind.wav\r\n\r\n     Pre-gap length  0:00:02.00\r\n\r\n     Peak level 100.0 %\r\n     Track quality 100.0 %\r\n     Test CRC 4B084F67\r\n     Copy CRC 4B084F67\r\n     Accurately ripped (confidence 15)  [4809E57A]\r\n     Copy OK\r\n\r\nTrack  5\r\n\r\n     Filename E:\\Music\\FLAC\\Anggun - Snow On The Sahara\\My Sensual Mind.wav\r\n\r\n     Pre-gap length  0:00:02.00\r\n\r\n     Peak level 97.7 %\r\n     Track quality 100.0 %\r\n     Test CRC 43EED693\r\n     Copy CRC 43EED693\r\n     Accurately ripped (confidence 16)  [3537BBFB]\r\n     Copy OK\r\n\r\nTrack  6\r\n\r\n     Filename E:\\Music\\FLAC\\Anggun - Snow On The Sahara\\Valparaíso.wav\r\n\r\n     Pre-gap length  0:00:02.00\r\n\r\n     Peak level 100.0 %\r\n     Track quality 100.0 %\r\n     Test CRC B6B08F2A\r\n     Copy CRC B6B08F2A\r\n     Accurately ripped (confidence 16)  [C7883D67]\r\n     Copy OK\r\n\r\nTrack  7\r\n\r\n     Filename E:\\Music\\FLAC\\Anggun - Snow On The Sahara\\Selamanya.wav\r\n\r\n     Pre-gap length  0:00:02.00\r\n\r\n     Peak level 77.8 %\r\n     Track quality 100.0 %\r\n     Test CRC 7D9DB6C4\r\n     Copy CRC 7D9DB6C4\r\n     Accurately ripped (confidence 16)  [12D591A1]\r\n     Copy OK\r\n\r\nTrack  8\r\n\r\n     Filename E:\\Music\\FLAC\\Anggun - Snow On The Sahara\\By The Moon.wav\r\n\r\n     Pre-gap length  0:00:02.00\r\n\r\n     Peak level 98.1 %\r\n     Track quality 99.9 %\r\n     Test CRC 1BC9A148\r\n     Copy CRC 1BC9A148\r\n     Accurately ripped (confidence 17)  [BB243AC9]\r\n     Copy OK\r\n\r\nTrack  9\r\n\r\n     Filename E:\\Music\\FLAC\\Anggun - Snow On The Sahara\\Dream Of Me.wav\r\n\r\n     Pre-gap length  0:00:02.00\r\n\r\n     Peak level 100.0 %\r\n     Track quality 100.0 %\r\n     Test CRC 89C83858\r\n     Copy CRC 89C83858\r\n     Accurately ripped (confidence 16)  [B9A96D62]\r\n     Copy OK\r\n\r\nTrack 10\r\n\r\n     Filename E:\\Music\\FLAC\\Anggun - Snow On The Sahara\\Secret Of The Sea.wav\r\n\r\n     Pre-gap length  0:00:02.00\r\n\r\n     Peak level 96.8 %\r\n     Track quality 99.9 %\r\n     Test CRC D8B87D6A\r\n     Copy CRC D8B87D6A\r\n     Accurately ripped (confidence 17)  [2D181662]\r\n     Copy OK\r\n\r\nTrack 11\r\n\r\n     Filename E:\\Music\\FLAC\\Anggun - Snow On The Sahara\\Life On Mars .wav\r\n\r\n     Pre-gap length  0:00:02.00\r\n\r\n     Peak level 99.9 %\r\n     Track quality 100.0 %\r\n     Test CRC 4A1F9B34\r\n     Copy CRC 4A1F9B34\r\n     Accurately ripped (confidence 17)  [E4CF8A42]\r\n     Copy OK\r\n\r\n\r\nAll tracks accurately ripped\r\n\r\nNo errors occurred\r\n\r\nEnd of status report\r\n[/CODE]
A Rose In The Wind.flac 32.436 MB
Anggun - Snow On The Sahara.log 4.991 KB
Anggun - Snow On The Sahara.md5 1.016 KB
Gathering some info...

Register and log in Isohunt and see no captcha anymore!

4000 symbols left
Hash 7BB7AB8F4663920F509F97E81C213FBD62F6FD1F

Related torrents for "Anggun - Snow On The Sahara (EAC-CUE-LOG-FLAC)"

Torrent search:

lossless lossless