imdb
rating

6.3
The American

The American (2010)

Crime, Drama, Thriller

Full description
quality   screener dvdrip dvd h264

Green Day-21 Gun(American Idiot Cast Version)720p Anky

Size 80.021 MB   0 seeders     Added 2011-07-25 02:41:18

Stream torrent
Starting‥ You need BitLord! Get it from BitLord.com
To download or stream you need BitLord. Visit them at BitLord.com
General
[img]image[/img]
Format : MPEG-4
File size : 76.3 MiB
Duration : 5mn 6s
Overall bit rate : 2 090 Kbps
Video
Format : AVC
Duration : 5mn 6s
Bit rate mode : Variable
Bit rate : 1,964 Kbps
Maximum bit rate : 4,221 Kbps
Width : 1,280 pixels
Height : 720 pixels
Display aspect ratio : 16:9
Frame rate mode : Constant
Frame rate : 29.970 fps
Scan type : Progressive
Stream size : 71.7 MiB (94%)
Audio
Format : AAC
Duration : 5mn 6s
Bit rate mode : Variable
Bit rate : 123 Kbps
Maximum bit rate : 176 Kbps
Channel(s) : 2 channels
Channel positions : L R
Sampling rate : 44.1 KHz
Resolution : 16 bits
Stream size : 4.49 MiB (6%)
screenshots
[img]image[/img]
[img]image[/img]
[img]image[/img] 
anky.txt 115 B
Green Day-21 Gun(American Idiot Cast Version)720p Anky.mp4 80.021 MB
Gathering some info...

Register and log in Isohunt and see no captcha anymore!

4000 symbols left
Hash A6DE292400233020B8CF0EBE9D464CEAB924EED8

Related torrents for "Green Day-21 Gun(American Idiot Cast Version)720p Anky"

Torrent search:

hd