imdb
rating

5.7
Bad Teacher

Bad Teacher (2011)

Comedy

Full description
quality   telesync dvd

Bad Teacher {2011} TS(xvid), NL Subs, DMT.torrent

Size 864.929 MB   0 seeders     Added 2011-07-25 12:41:36

Stream torrent
Starting‥ You need BitLord! Get it from BitLord.com
To download or stream you need BitLord. Visit them at BitLord.com
Bad Teacher {2011} TS(xvid), NL Subs, DMT.torrent
[url=http://leetleech.org/][img]image[/img][/url]


[url=http://leetleech.org/][img]image[/img][/url]

Format : AVI
Format/Info : Audio Video Interleave
File size : 960 MiB
Duration : 1h 28mn
Overall bit rate : 1 522 Kbps
Writing application : VirtualDubMod 1.5.10.2 (build 2540/release)
Writing library : VirtualDub build 32842/release

Video
ID : 0
Format : MPEG-4 Visual
Format profile : Advanced Simple@L5
Format settings, BVOP : 2
Format settings, QPel : No
Format settings, GMC : No warppoints
Format settings, Matrix : Default (H.263)
Muxing mode : Packed bitstream
Codec ID : XVID
Codec ID/Hint : XviD
Duration : 1h 28mn
Bit rate : 1 384 Kbps
Width : 672 pixels
Height : 358 pixels
Display aspect ratio : 1.877
Frame rate : 25.000 fps
Color space : YUV
Chroma subsampling : 4:2:0
Bit depth : 8 bits
Scan type : Progressive
Compression mode : Lossy
Bits/(Pixel*Frame) : 0.230
Stream size : 873 MiB (91%)
Writing library : XviD 64

Audio
ID : 1
Format : MPEG Audio
Format version : Version 1
Format profile : Layer 3
Mode : Joint stereo
Mode extension : MS Stereo
Codec ID : 55
Codec ID/Hint : MP3
Duration : 1h 28mn
Bit rate mode : Constant
Bit rate : 128 Kbps
Channel(s) : 2 channels
Sampling rate : 44.1 KHz
Compression mode : Lossy
Stream size : 80.8 MiB (8%)
Alignment : Split accross interleaves
Interleave, duration : 40 ms (1.00 video frame)
Interleave, preload duration : 500 ms
Writing library : LAME3.98r
Encoding settings : -m j -V 4 -q 2 -lowpass 17 -b 128






http://www.imdb.com/title/tt1284575/







Users: (5,569 votes) 62 reviews | Critics: 140 reviews Metascore: 47/100 (based on 38 reviews from Metacritic.com)


A comedy centered around a foul-mouthed, junior high teacher who, after being dumped by her sugar daddy, begins to woo a colleague -- a move that pits her against a well-loved teacher.

Director: Jake Kasdan
Writers: Gene Stupnitsky, Lee Eisenberg
Stars: Cameron Diaz, Jason Segel and Justin Timberlake




















Source Used



VIDEO: .............. Ochen.plohaya.ychilka.D.2011.TS..avi .....IMAGiNE ...... Thanks

AUDIO: .............. IMAGiNE ...................................................Thanks

Sample included so check it out as the source has a scroll/flicker so dont be moaning later/.........Usual filters just done what i can ..so


Enjoy





Greetz to IMAGiNE,Flawl3ss,DiLLoN,BDK,NOiR,TOXiC,THC,Ez,Rx,Boobyblue,TaRiQ786,BHRG















Currently looking for encoders/syncers if anything to offer contact me on dtrg@hush.ai




Bad Teacher {2011} TS(xvid), NL Subs, DMT.avi 864.925 MB
movie.nfo 4.858 KB
Torrent downloaded from ExtraTorrent.com.txt 35 B
Gathering some info...

Register and log in Isohunt and see no captcha anymore!

4000 symbols left
Hash 3C1AFF6FA615BE93E9D00E6E449DEB878B164126

Related torrents for "Bad Teacher {2011} TS(xvid), NL Subs, DMT.torrent"

Torrent search:

subs telesync 2011