Super 2010 Limited BRRip XViD

Size 1.466 GB   4 seeders     Added 2011-07-25 22:21:05

Stream torrent
Starting‥ You need BitLord! Get it from BitLord.com
To download or stream you need BitLord. Visit them at BitLord.com
Plot:

After his wife falls under the influence of a drug dealer, an everyday guy transforms himself into Crimson Bolt, a superhero with the best intentions, though he lacks for heroic skills. 

Director: James Gunn
Writer: James Gunn
Stars: Rainn Wilson, Ellen Page and Liv Tyler


http://www.imdb.com/title/tt1512235/
 


Users: (3,770 votes) 41 reviews | Critics: 114 reviews Metascore: 50/100 (based on 26 reviews from Metacritic.com) 



Format : AVI
Format/Info : Audio Video Interleave
File size : 1.36 GiB
Duration : 1h 35mn
Overall bit rate : 2 050 Kbps
Writing application : VirtualDubMod 1.5.10.2 (build 2540/release)
Writing library : VirtualDubMod build 2540/release

Video
ID : 0
Format : MPEG-4 Visual
Format profile : Advanced Simple@L5
Format settings, BVOP : 2
Format settings, QPel : No
Format settings, GMC : No warppoints
Format settings, Matrix : Default (H.263)
Codec ID : XVID
Codec ID/Hint : XviD
Duration : 1h 35mn
Bit rate : 1 592 Kbps
Width : 720 pixels
Height : 384 pixels
Display aspect ratio : 1.875
Frame rate : 23.976 fps
Color space : YUV
Chroma subsampling : 4:2:0
Bit depth : 8 bits
Scan type : Progressive
Compression mode : Lossy
Bits/(Pixel*Frame) : 0.240
Stream size : 1.06 GiB (78%)
Writing library : XviD 63

Audio
ID : 1
Format : AC-3
Format/Info : Audio Coding 3
Mode extension : CM (complete main)
Codec ID : 2000
Duration : 1h 35mn
Bit rate mode : Constant
Bit rate : 448 Kbps
Channel(s) : 6 channels
Channel positions : Front: L C R, Side: L R, LFE
Sampling rate : 48.0 KHz
Bit depth : 16 bits
Compression mode : Lossy
Stream size : 305 MiB (22%)
Alignment : Split accross interleaves
Interleave, duration : 42 ms (1.00 video frame)
Interleave, preload duration : 500 ms


Source Used 

Super LIMITED 720p BluRay x264-REFiNED

Enjoy
Super 2010 Limited BRRip XViD/Sample.avi 3.556 MB
Super 2010 Limited BRRip XViD/Super 2010 Limited BRRip XViD.avi 1.463 GB
Super 2010 Limited BRRip XViD/Watch free movies online at instantfreemovies.net.txt 230 B
Gathering some info...

Register and log in Isohunt and see no captcha anymore!

4000 symbols left
Hash 9e8e97216fa83e14b3997cab173965ad73a1ed89

Related torrents for "Super 2010 Limited BRRip XViD"

Torrent search:

2010 bd