Single

Single (2015)

Drama, Comedy

Full description
quality   hdtv dvdr dvdrip hd

Novaspace Singles Discography *2002-2011* [HDRip XviD-miguel] [E

Size 771.698 MB   3 seeders     Added 2011-07-27 15:40:26

Stream torrent
Starting‥ You need BitLord! Get it from 1BitLord.com
To download or stream you need BitLord. Visit them at BitLord.com
image Production.: USA Genre......: Dance Year.......: 2002-2011 Size.......: 735 MB More.......: http://en.wikipedia.org/wiki/Novaspace Descreption : Novaspace is a German Eurodance project which, between 2002 and 2004, covered several 1980s hits, such as "Time After Time", "Guardian Angel" and "Beds Are Burning". They have reached the Top 20 in Germany, Austria and Australia. Novaspace, which was originated in 2002 by the record producer Felix Gauder, was first fronted by the singer Jessica Bohrs, who was later replaced by Jenny Marsala. Data Technical : Audio: English 01. Novaspace - Time After Time 2002 [HDRip.XviD-miguel] [ENG] Format : AVI Format/Info : Audio Video Interleave File size : 61.2 MiB Duration : 3mn 42s Overall bit rate : 2 304 Kbps Writing application : MEncoder Sherpya-SVN-r32492-4.2.5 Writing library : MPlayer Video ID : 0 Format : MPEG-4 Visual Format profile : Simple@L3 Format settings, BVOP : No Format settings, QPel : No Format settings, GMC : No warppoints Format settings, Matrix : Default (H.263) Codec ID : XVID Codec ID/Hint : XviD Duration : 3mn 42s Bit rate : 1 989 Kbps Width : 640 pixels Height : 360 pixels Display aspect ratio : 16:9 Frame rate : 25.000 fps Color space : YUV Chroma subsampling : 4:2:0 Bit depth : 8 bits Scan type : Progressive Bits/(Pixel*Frame) : 0.345 Stream size : 52.8 MiB (86%) Writing library : XviD 1.2.1 (UTC 2008-12-04) Audio ID : 1 Format : MPEG Audio Format version : Version 1 Format profile : Layer 3 Mode : Joint stereo Codec ID : 55 Codec ID/Hint : MP3 Duration : 3mn 41s Bit rate mode : Variable Bit rate : 303 Kbps Channel(s) : 2 channels Sampling rate : 48.0 KHz Stream size : 8.02 MiB (13%) Alignment : Aligned on interleaves Interleave, duration : 24 ms (0.60 video frame) Interleave, preload duration : 501 ms Screen : image 02. Novaspace - To France 2002 [HDRip.XviD-miguel] [ENG] Format : AVI Format/Info : Audio Video Interleave File size : 60.0 MiB Duration : 3mn 38s Overall bit rate : 2 299 Kbps Writing application : MEncoder Sherpya-SVN-r32492-4.2.5 Writing library : MPlayer Video ID : 0 Format : MPEG-4 Visual Format profile : Simple@L3 Format settings, BVOP : No Format settings, QPel : No Format settings, GMC : No warppoints Format settings, Matrix : Default (H.263) Codec ID : XVID Codec ID/Hint : XviD Duration : 3mn 38s Bit rate : 1 984 Kbps Width : 640 pixels Height : 360 pixels Display aspect ratio : 16:9 Frame rate : 25.000 fps Color space : YUV Chroma subsampling : 4:2:0 Bit depth : 8 bits Scan type : Progressive Bits/(Pixel*Frame) : 0.344 Stream size : 51.7 MiB (86%) Writing library : XviD 1.2.1 (UTC 2008-12-04) Audio ID : 1 Format : MPEG Audio Format version : Version 1 Format profile : Layer 3 Mode : Joint stereo Codec ID : 55 Codec ID/Hint : MP3 Duration : 3mn 38s Bit rate mode : Variable Bit rate : 303 Kbps Channel(s) : 2 channels Sampling rate : 48.0 KHz Stream size : 7.89 MiB (13%) Alignment : Aligned on interleaves Interleave, duration : 24 ms (0.60 video frame) Interleave, preload duration : 510 ms Screen : image 03. Novaspace - Guardian Angel 2002 [HDRip.XviD-miguel] [ENG] Format : AVI Format/Info : Audio Video Interleave File size : 58.2 MiB Duration : 3mn 42s Overall bit rate : 2 192 Kbps Writing application : MEncoder Sherpya-SVN-r32492-4.2.5 Writing library : MPlayer Video ID : 0 Format : MPEG-4 Visual Format profile : Simple@L3 Format settings, BVOP : No Format settings, QPel : No Format settings, GMC : No warppoints Format settings, Matrix : Default (H.263) Codec ID : XVID Codec ID/Hint : XviD Duration : 3mn 42s Bit rate : 1 874 Kbps Width : 640 pixels Height : 360 pixels Display aspect ratio : 16:9 Frame rate : 25.000 fps Color space : YUV Chroma subsampling : 4:2:0 Bit depth : 8 bits Scan type : Progressive Bits/(Pixel*Frame) : 0.325 Stream size : 49.8 MiB (85%) Writing library : XviD 1.2.1 (UTC 2008-12-04) Audio ID : 1 Format : MPEG Audio Format version : Version 1 Format profile : Layer 3 Mode : Joint stereo Codec ID : 55 Codec ID/Hint : MP3 Duration : 3mn 42s Bit rate mode : Variable Bit rate : 305 Kbps Channel(s) : 2 channels Sampling rate : 48.0 KHz Stream size : 8.11 MiB (14%) Alignment : Aligned on interleaves Interleave, duration : 24 ms (0.60 video frame) Interleave, preload duration : 508 ms Screen : image 04. Novaspace - Paradise 2003 [HDRip.XviD-miguel] [ENG] Format : AVI Format/Info : Audio Video Interleave File size : 59.5 MiB Duration : 3mn 36s Overall bit rate : 2 303 Kbps Writing application : MEncoder Sherpya-SVN-r32492-4.2.5 Writing library : MPlayer Video ID : 0 Format : MPEG-4 Visual Format profile : Simple@L3 Format settings, BVOP : No Format settings, QPel : No Format settings, GMC : No warppoints Format settings, Matrix : Default (H.263) Codec ID : XVID Codec ID/Hint : XviD Duration : 3mn 36s Bit rate : 1 979 Kbps Width : 640 pixels Height : 360 pixels Display aspect ratio : 16:9 Frame rate : 25.000 fps Color space : YUV Chroma subsampling : 4:2:0 Bit depth : 8 bits Scan type : Progressive Bits/(Pixel*Frame) : 0.344 Stream size : 51.1 MiB (86%) Writing library : XviD 1.2.1 (UTC 2008-12-04) Audio ID : 1 Format : MPEG Audio Format version : Version 1 Format profile : Layer 3 Mode : Joint stereo Mode extension : MS Stereo Codec ID : 55 Codec ID/Hint : MP3 Duration : 3mn 36s Bit rate mode : Variable Bit rate : 310 Kbps Channel(s) : 2 channels Sampling rate : 48.0 KHz Stream size : 8.02 MiB (13%) Alignment : Aligned on interleaves Interleave, duration : 24 ms (0.60 video frame) Interleave, preload duration : 504 ms Screen : image 05. Novaspace - Run To You 2003 [DVDRip.XviD-miguel] [ENG] Format : AVI Format/Info : Audio Video Interleave File size : 60.3 MiB Duration : 3mn 41s Overall bit rate : 2 283 Kbps Writing application : MEncoder Sherpya-SVN-r32492-4.2.5 Writing library : MPlayer Video ID : 0 Format : MPEG-4 Visual Format profile : Simple@L3 Format settings, BVOP : No Format settings, QPel : No Format settings, GMC : No warppoints Format settings, Matrix : Default (H.263) Codec ID : XVID Codec ID/Hint : XviD Duration : 3mn 41s Bit rate : 1 968 Kbps Width : 640 pixels Height : 360 pixels Display aspect ratio : 16:9 Frame rate : 25.000 fps Color space : YUV Chroma subsampling : 4:2:0 Bit depth : 8 bits Scan type : Progressive Bits/(Pixel*Frame) : 0.342 Stream size : 52.0 MiB (86%) Writing library : XviD 1.2.1 (UTC 2008-12-04) Audio ID : 1 Format : MPEG Audio Format version : Version 1 Format profile : Layer 3 Mode : Joint stereo Codec ID : 55 Codec ID/Hint : MP3 Duration : 3mn 41s Bit rate mode : Variable Bit rate : 303 Kbps Channel(s) : 2 channels Sampling rate : 48.0 KHz Stream size : 8.00 MiB (13%) Alignment : Aligned on interleaves Interleave, duration : 24 ms (0.60 video frame) Interleave, preload duration : 517 ms Screen : image 06. Novaspace - Beds Are Burning 2004 [HDRip.XviD-miguel] [ENG] Format : AVI Format/Info : Audio Video Interleave File size : 54.8 MiB Duration : 3mn 20s Overall bit rate : 2 291 Kbps Writing application : MEncoder Sherpya-SVN-r32492-4.2.5 Writing library : MPlayer Video ID : 0 Format : MPEG-4 Visual Format profile : Simple@L3 Format settings, BVOP : No Format settings, QPel : No Format settings, GMC : No warppoints Format settings, Matrix : Default (H.263) Codec ID : XVID Codec ID/Hint : XviD Duration : 3mn 20s Bit rate : 1 974 Kbps Width : 640 pixels Height : 360 pixels Display aspect ratio : 16:9 Frame rate : 25.000 fps Color space : YUV Chroma subsampling : 4:2:0 Bit depth : 8 bits Scan type : Progressive Bits/(Pixel*Frame) : 0.343 Stream size : 47.2 MiB (86%) Writing library : XviD 1.2.1 (UTC 2008-12-04) Audio ID : 1 Format : MPEG Audio Format version : Version 1 Format profile : Layer 3 Mode : Joint stereo Mode extension : MS Stereo Codec ID : 55 Codec ID/Hint : MP3 Duration : 3mn 20s Bit rate mode : Variable Bit rate : 304 Kbps Channel(s) : 2 channels Sampling rate : 48.0 KHz Stream size : 7.27 MiB (13%) Alignment : Aligned on interleaves Interleave, duration : 24 ms (0.60 video frame) Interleave, preload duration : 515 ms Screen : image 07. Novaspace - So Lonely 2004 [HDTVRip.XviD-miguel] [ENG] Format : AVI Format/Info : Audio Video Interleave File size : 61.0 MiB Duration : 3mn 40s Overall bit rate : 2 324 Kbps Writing application : MEncoder Sherpya-SVN-r32492-4.2.5 Writing library : MPlayer Video ID : 0 Format : MPEG-4 Visual Format profile : Simple@L3 Format settings, BVOP : No Format settings, QPel : No Format settings, GMC : No warppoints Format settings, Matrix : Default (H.263) Codec ID : XVID Codec ID/Hint : XviD Duration : 3mn 40s Bit rate : 2 001 Kbps Width : 640 pixels Height : 360 pixels Display aspect ratio : 16:9 Frame rate : 29.970 fps Color space : YUV Chroma subsampling : 4:2:0 Bit depth : 8 bits Scan type : Progressive Bits/(Pixel*Frame) : 0.290 Stream size : 52.5 MiB (86%) Writing library : XviD 1.2.1 (UTC 2008-12-04) Audio ID : 1 Format : MPEG Audio Format version : Version 1 Format profile : Layer 3 Mode : Joint stereo Mode extension : MS Stereo Codec ID : 55 Codec ID/Hint : MP3 Duration : 3mn 40s Bit rate mode : Variable Bit rate : 310 Kbps Channel(s) : 2 channels Sampling rate : 48.0 KHz Stream size : 8.12 MiB (13%) Alignment : Aligned on interleaves Interleave, duration : 24 ms (0.72 video frame) Interleave, preload duration : 510 ms Screen : image 08. Novaspace - Dancing With Tears In My Eyes 2004 [DVDRip.XviD-miguel] [ENG] Format : AVI Format/Info : Audio Video Interleave File size : 59.3 MiB Duration : 3mn 39s Overall bit rate : 2 264 Kbps Writing application : MEncoder Sherpya-SVN-r32492-4.2.5 Writing library : MPlayer Video ID : 0 Format : MPEG-4 Visual Format profile : Simple@L3 Format settings, BVOP : No Format settings, QPel : No Format settings, GMC : No warppoints Format settings, Matrix : Default (H.263) Codec ID : XVID Codec ID/Hint : XviD Duration : 3mn 39s Bit rate : 1 945 Kbps Width : 640 pixels Height : 360 pixels Display aspect ratio : 16:9 Frame rate : 25.000 fps Color space : YUV Chroma subsampling : 4:2:0 Bit depth : 8 bits Scan type : Progressive Bits/(Pixel*Frame) : 0.338 Stream size : 50.9 MiB (86%) Writing library : XviD 1.2.1 (UTC 2008-12-04) Audio ID : 1 Format : MPEG Audio Format version : Version 1 Format profile : Layer 3 Mode : Joint stereo Codec ID : 55 Codec ID/Hint : MP3 Duration : 3mn 39s Bit rate mode : Variable Bit rate : 306 Kbps Channel(s) : 2 channels Sampling rate : 48.0 KHz Stream size : 8.02 MiB (14%) Alignment : Aligned on interleaves Interleave, duration : 24 ms (0.60 video frame) Interleave, preload duration : 506 ms Screen : image 09. Novaspace - All Through The Night 2006 [320kbps] Audio: MPEG Audio Layer 3 44100Hz stereo 320Kbps [Audio] Screen : None 10. Novaspace - Dancing Into Danger 2009 [HDRip.XviD-miguel] [ENG] Format : AVI Format/Info : Audio Video Interleave File size : 48.2 MiB Duration : 3mn 34s Overall bit rate : 1 881 Kbps Writing application : MEncoder Sherpya-SVN-r32492-4.2.5 Writing library : MPlayer Video ID : 0 Format : MPEG-4 Visual Format profile : Simple@L3 Format settings, BVOP : No Format settings, QPel : No Format settings, GMC : No warppoints Format settings, Matrix : Default (H.263) Codec ID : XVID Codec ID/Hint : XviD Duration : 3mn 34s Bit rate : 1 564 Kbps Width : 640 pixels Height : 360 pixels Display aspect ratio : 16:9 Frame rate : 25.000 fps Color space : YUV Chroma subsampling : 4:2:0 Bit depth : 8 bits Scan type : Progressive Bits/(Pixel*Frame) : 0.272 Stream size : 40.0 MiB (83%) Writing library : XviD 1.2.1 (UTC 2008-12-04) Audio ID : 1 Format : MPEG Audio Format version : Version 1 Format profile : Layer 3 Mode : Joint stereo Codec ID : 55 Codec ID/Hint : MP3 Duration : 3mn 34s Bit rate mode : Variable Bit rate : 307 Kbps Channel(s) : 2 channels Sampling rate : 48.0 KHz Stream size : 7.87 MiB (16%) Alignment : Aligned on interleaves Interleave, duration : 24 ms (0.60 video frame) Interleave, preload duration : 142 ms Writing library : LAME3.98.4 Screen : image 11. Novaspace - Time After Time Rebirth 2009 [HDRip.XviD-miguel] [ENG] Format : AVI Format/Info : Audio Video Interleave File size : 49.1 MiB Duration : 3mn 22s Overall bit rate : 2 030 Kbps Writing application : MEncoder Sherpya-SVN-r32492-4.2.5 Writing library : MPlayer Video ID : 0 Format : MPEG-4 Visual Format profile : Simple@L3 Format settings, BVOP : No Format settings, QPel : No Format settings, GMC : No warppoints Format settings, Matrix : Default (H.263) Codec ID : XVID Codec ID/Hint : XviD Duration : 3mn 22s Bit rate : 1 799 Kbps Width : 640 pixels Height : 360 pixels Display aspect ratio : 16:9 Frame rate : 29.970 fps Color space : YUV Chroma subsampling : 4:2:0 Bit depth : 8 bits Scan type : Progressive Bits/(Pixel*Frame) : 0.261 Stream size : 43.5 MiB (89%) Writing library : XviD 1.2.1 (UTC 2008-12-04) Audio ID : 1 Format : MPEG Audio Format version : Version 1 Format profile : Layer 3 Mode : Joint stereo Mode extension : MS Stereo Codec ID : 55 Codec ID/Hint : MP3 Duration : 3mn 22s Bit rate mode : Constant Bit rate : 32.0 Kbps Channel(s) : 2 channels Sampling rate : 48.0 KHz Stream size : 5.28 MiB (11%) Alignment : Aligned on interleaves Interleave, duration : 24 ms (0.72 video frame) Interleave, preload duration : 73 ms Writing library : LAME3.98.4 Screen : image 12. Novaspace - Love Changes Everything 2010 [HDTVRip.XviD-miguel] [ENG] Format : AVI Format/Info : Audio Video Interleave File size : 49.4 MiB Duration : 3mn 2s Overall bit rate : 2 265 Kbps Writing application : MEncoder Sherpya-SVN-r32492-4.2.5 Writing library : MPlayer Video ID : 0 Format : MPEG-4 Visual Format profile : Simple@L3 Format settings, BVOP : No Format settings, QPel : No Format settings, GMC : No warppoints Format settings, Matrix : Default (H.263) Codec ID : XVID Codec ID/Hint : XviD Duration : 3mn 2s Bit rate : 1 949 Kbps Width : 640 pixels Height : 360 pixels Display aspect ratio : 16:9 Frame rate : 25.000 fps Color space : YUV Chroma subsampling : 4:2:0 Bit depth : 8 bits Scan type : Progressive Bits/(Pixel*Frame) : 0.338 Stream size : 42.5 MiB (86%) Writing library : XviD 1.2.1 (UTC 2008-12-04) Audio ID : 1 Format : MPEG Audio Format version : Version 1 Format profile : Layer 3 Mode : Joint stereo Codec ID : 55 Codec ID/Hint : MP3 Duration : 3mn 2s Bit rate mode : Variable Bit rate : 304 Kbps Channel(s) : 2 channels Sampling rate : 48.0 KHz Stream size : 6.61 MiB (13%) Alignment : Aligned on interleaves Interleave, duration : 24 ms (0.60 video frame) Interleave, preload duration : 470 ms Screen : image 13. Novaspace - Close Your Eyes 2010 [HDRip.XviD-miguel] [ENG] Format : AVI Format/Info : Audio Video Interleave File size : 44.5 MiB Duration : 3mn 13s Overall bit rate : 1 933 Kbps Writing application : MEncoder Sherpya-SVN-r32492-4.2.5 Writing library : MPlayer Video ID : 0 Format : MPEG-4 Visual Format profile : Simple@L3 Format settings, BVOP : No Format settings, QPel : No Format settings, GMC : No warppoints Format settings, Matrix : Default (H.263) Codec ID : XVID Codec ID/Hint : XviD Duration : 3mn 13s Bit rate : 1 615 Kbps Width : 640 pixels Height : 360 pixels Display aspect ratio : 16:9 Frame rate : 25.000 fps Color space : YUV Chroma subsampling : 4:2:0 Bit depth : 8 bits Scan type : Progressive Bits/(Pixel*Frame) : 0.280 Stream size : 37.2 MiB (84%) Writing library : XviD 1.2.1 (UTC 2008-12-04) Audio ID : 1 Format : MPEG Audio Format version : Version 1 Format profile : Layer 3 Mode : Joint stereo Codec ID : 55 Codec ID/Hint : MP3 Duration : 3mn 13s Bit rate mode : Variable Bit rate : 305 Kbps Channel(s) : 2 channels Sampling rate : 48.0 KHz Stream size : 7.02 MiB (16%) Alignment : Aligned on interleaves Interleave, duration : 24 ms (0.60 video frame) Interleave, preload duration : 519 ms Screen : image 14. Novaspace - Dont Look Back 2011 [HDRip.XviD-miguel] [ENG] Format : AVI Format/Info : Audio Video Interleave File size : 58.2 MiB Duration : 3mn 33s Overall bit rate : 2 289 Kbps Writing application : MEncoder Sherpya-SVN-r32492-4.2.5 Writing library : MPlayer Video ID : 0 Format : MPEG-4 Visual Format profile : Simple@L3 Format settings, BVOP : No Format settings, QPel : No Format settings, GMC : No warppoints Format settings, Matrix : Default (H.263) Codec ID : XVID Codec ID/Hint : XviD Duration : 3mn 33s Bit rate : 1 971 Kbps Width : 640 pixels Height : 360 pixels Display aspect ratio : 16:9 Frame rate : 25.000 fps Color space : YUV Chroma subsampling : 4:2:0 Bit depth : 8 bits Scan type : Progressive Bits/(Pixel*Frame) : 0.342 Stream size : 50.1 MiB (86%) Writing library : XviD 1.2.1 (UTC 2008-12-04) Audio ID : 1 Format : MPEG Audio Format version : Version 1 Format profile : Layer 3 Mode : Joint stereo Codec ID : 55 Codec ID/Hint : MP3 Duration : 3mn 33s Bit rate mode : Variable Bit rate : 306 Kbps Channel(s) : 2 channels Sampling rate : 48.0 KHz Stream size : 7.76 MiB (13%) Alignment : Aligned on interleaves Interleave, duration : 24 ms (0.60 video frame) Interleave, preload duration : 492 ms Screen : image
[www.tnttorrent.info] Novaspace Singles Discography 2002-2011 [HDRip.XviD-miguel] [Ekipa TnT]/01. Novaspace - Time After Time 2002 [HDRip.XviD-miguel] [ENG].avi 64.146 MB
[www.tnttorrent.info] Novaspace Singles Discography 2002-2011 [HDRip.XviD-miguel] [Ekipa TnT]/02. Novaspace - To France 2002 [HDRip.XviD-miguel] [ENG].avi 62.877 MB
[www.tnttorrent.info] Novaspace Singles Discography 2002-2011 [HDRip.XviD-miguel] [Ekipa TnT]/03. Novaspace - Guardian Angel 2002 [HDRip.XviD-miguel] [ENG].avi 61.036 MB
Gathering some info...

Register and log in Isohunt and see no captcha anymore!

4000 symbols left
Hash 96e9a9080e4f48a1347a462870bd3a4fc2bb0c39

Related torrents for "Novaspace Singles Discography *2002-2011* [HDRip XviD-miguel] [E"

Torrent search:

hd 2011