imdb
rating

7.0
Michael

Michael (2011)

Drama

Full description

Michael Jackson - Smooth Criminal 720P by RoYStaR

Size 422.879 MB   26 seeders     Added 2011-07-28 02:41:52

Stream torrent
Starting‥ You need BitLord! Get it from BitLord.com
10
To download or stream you need BitLord. Visit them at BitLord.com
"Smooth Criminal" is the seventh single from Michael Jackson's 1987 Bad album. The song contains a fast-paced beat intertwined with Jackson's lyrics about a woman named Annie, who has been attacked in her apartment by a "smooth" assailant. It was released as a single on October 24, 1988 and peaked at No. 7 on the Billboard Hot 100.
General
Complete name : D:\\TOORENT FOR UPLOAD\\Michael Jackson - Smooth Criminal 720P by RoYStaR\\Michael Jackson - Smooth Criminal 720P by RoYStaR.mp4
Format : MPEG-4
Format profile : Base Media
Codec ID : isom
File size : 388 MiB
Duration : 9mn 55s
Overall bit rate : 5 467 Kbps
Encoded date : UTC 2011-07-27 08:02:12
Tagged date : UTC 2011-07-27 08:02:12
Writing application : Lavf51.12.1
Video
ID : 1
Format : MPEG-4 Visual
Format profile : Simple@L1
Format settings, BVOP : No
Format settings, QPel : No
Format settings, GMC : No warppoints
Format settings, Matrix : Default (H.263)
Codec ID : 20
Duration : 9mn 55s
Bit rate mode : Variable
Bit rate : 5 334 Kbps
Width : 1 280 pixels
Height : 720 pixels
Display aspect ratio : 16:9
Frame rate mode : Constant
Frame rate : 25.000 fps
Color space : YUV
Chroma subsampling : 4:2:0
Bit depth : 8 bits
Scan type : Progressive
Compression mode : Lossy
Bits/(Pixel*Frame) : 0.232
Stream size : 378 MiB (98%)
Writing library : Lavc51.40.4
Language : English
Encoded date : UTC 2011-07-27 08:02:12
Tagged date : UTC 2011-07-27 08:02:12
Audio
ID : 2
Format : AAC
Format/Info : Advanced Audio Codec
Format profile : LC
Codec ID : 40
Duration : 9mn 55s
Bit rate mode : Variable
Bit rate : 128 Kbps
Channel(s) : 2 channels
Channel positions : Front: L R
Sampling rate : 44.1 KHz
Compression mode : Lossy
Stream size : 9.08 MiB (2%)
Encoded date : UTC 2011-07-27 08:02:12
Tagged date : UTC 2011-07-27 08:02:12
Full 9.55 Minutes .
This is quality upload. . . . . . . 
Because i am upload only quality torrent....
ENJOY................ *RoY StaR*
 
Message by RoYStaR.png 284.117 KB
Michael Jackson - Smooth Criminal 720P by RoYStaR.mp4 406.66 MB
Read Me First.txt 1.907 KB
Gathering some info...

Register and log in Isohunt and see no captcha anymore!

4000 symbols left
Hash 154731B68C3A9EB195E39968081B6134204D9544

Related torrents for "Michael Jackson - Smooth Criminal 720P by RoYStaR"

Torrent search:

hd 2011