imdb
rating

5.1
The Walking Dead Girls

The Walking Dead Girls (2011)

Documentary

Full description
quality   bd dvdrip hdtv x264 hd

The Walking Dead 2011 BRRiP XviD AC3-UnKnOwN

Size 1.258 GB   0 seeders     Added 2011-07-30 18:46:29

Stream torrent
Starting‥ You need BitLord! Get it from 1BitLord.com
To download or stream you need BitLord. Visit them at BitLord.com
:::::::::::::::::::::::::::::The Walking Dead 2011 BRRiP XviD AC3-UnKnOwN:::::::::::::::::::::::::::::

Polt:
Police officer Rick Grimes leads a group of survivors in a world overrun by zombies. 

Genre:
Language:English
IMDb: http://www.imdb.com/title/tt1520211/
Source:DVD Thanks!
Subtitles:ENG

Format : AVI
Format/Info : Audio Video Interleave
Duration : 1h 47mn
Overall bit rate : 1 342 Kbps
Size: 1.17 GB
Video
ID : 0
Format : MPEG-4 Visual
Format profile : Advanced Simple@L5
Format settings, BVOP : Yes
Format settings, QPel : No
Format settings, GMC : No warppoints
Format settings, Matrix : Default (H.263)
Codec ID : XVID
Codec ID/Hint : XviD
Duration : 1h 47mn
Bit rate : 885 Kbps
Width : 720 pixels
Height : 304 pixels
Display aspect ratio : 2.35:1
Frame rate : 23.976 fps
Color space : YUV
Chroma subsampling : 4:2:0
Bit depth : 8 bits
Scan type : Progressive
Bits/(Pixel*Frame) : 0.169
Stream size : 682 MiB (66%)
Writing library : XviD 1.2.1 (UTC 2008-12-04)

Audio
ID : 1
Format : AC-3
Format/Info : Audio Coding 3
Mode extension : CM (complete main)
Codec ID : 2000
Duration : 1h 47mn
Bit rate mode : Constant
Bit rate : 448 Kbps
Channel(s) : 6 channels
Channel positions : Front: L C R, Side: L R, LFE
Sampling rate : 48.0 KHz
Bit depth : 16 bits
Stream size : 345 MiB (33%)
Alignment : Aligned on interleaves
Interleave, duration : 42 ms (1.00 video frame)
Interleave, preload duration : 512 ms


TRAILER:
[embed=youtube]http://www.youtube.com/watch?v=R1v0uFms68U[/embed]






Greets::::From-UnKnOwN-::::

INK,CRYS,IMAGINE,LKRG,FXG,3Li,FLAWL3SS,TA,iLLUSiON,ViSiON,DTRG SAFCuk009,LU,TheFalcon007,MYSTiC,PrisM,Noir,WBZ,LAP,Rx,Kingdom,SAFCuk009+Fabreezy,HDLiTE,TWiZTED,ExtraTorrentRG.ELEKTRI4KA,MAGNAT,CM8
And to all the other p2p grps past and present





Thanks&Enjoyto all who promotes our release !!!
The Walking Dead 2011 BRRiP XviD AC3-UnKnOwN.avi 1.258 GB
The Walking Dead 2011 BRRiP XviD AC3-UnKnOwN.nfo 4.858 KB
Gathering some info...

Register and log in Isohunt and see no captcha anymore!

4000 symbols left
Hash E8B1A8DC7C4AB889B3C8D909BDFA441F3F2148C4

Related torrents for "The Walking Dead 2011 BRRiP XviD AC3-UnKnOwN"

Torrent search:

bd 2011