imdb
rating

5.6
Your Highness

Your Highness (2011)

Action, Adventure, Comedy, Fantasy

Full description
quality   telesync hdtv dvdrip cam dvd

Your Highness 2011 DVDrip English Klam

Size 1.685 GB   0 seeders     Added 2011-07-31 15:41:03

Stream torrent
Starting‥ You need BitLord! Get it from 1BitLord.com
To download or stream you need BitLord. Visit them at BitLord.com
[img] image[/img]

With: James Franco, Danny McBride and Natalie Portman

De arrogante, luie prins Thadeous (Danny McBride) wordt door zijn vader gedwongen zijn broer en troonopvolger Fabious (James Franco) te helpen zijn verloofde Belladonna (Zooey Deschanel) te redden uit de handen van de boze tovenaar Leezar (Justin Theroux ), voordat het koninkrijk van hun vader wordt vernietigd. Vergezeld door Isabel (Natalie Portman), een ongrijpbare krijgsvrouw, moeten de broers eerst gruwelijke wezens en verraderlijke ridders verslaan voordat ze Belladonna kunnen bereiken.

When Prince Fabious's bride is kidnapped, he goes on a quest to rescue her... accompanied by his lazy useless brother Thadeous.

http://www.imdb.com/title/tt1240982

------------------ Dutch Friends ------------------
You can find my Friends at: http://www.Film-Test.nl 
------ They got my dutchs subs ---- and more ------

General:

Complete name                    : Your Highness\Your Highness.avi
Format                           : AVI
Format/Info                      : Audio Video Interleave
File size                        : 1.57 GiB
Duration                         : 1h 45mn
Overall bit rate                 : 2 130 Kbps

Video:

Format                           : MPEG-4 Visual
Format profile                   : Simple@L3
Format settings, BVOP            : No
Format settings, QPel            : No
Format settings, GMC             : No warppoints
Format settings, Matrix          : Default (H.263)
Codec ID                         : XVID
Codec ID/Hint                    : XviD
Duration                         : 1h 45mn
Bit rate                         : 1 671 Kbps
Width                            : 720 pixels
Height                           : 304 pixels
Display aspect ratio             : 2.35:1
Frame rate                       : 23.976 fps
Color space                      : YUV
Chroma subsampling               : 4:2:0
Bit depth                        : 8 bits
Scan type                        : Progressive
Bits/(Pixel*Frame)               : 0.318
Stream size                      : 1.23 GiB (78%)
Writing library                  : XviD 1.1.2 (UTC 2006-11-01)

Audio:

Format                           : AC-3
Format/Info                      : Audio Coding 3
Mode extension                   : CM (complete main)
Codec ID                         : 2000
Duration                         : 1h 45mn
Bit rate mode                    : Constant
Bit rate                         : 448 Kbps
Channel(s)                       : 6 channels
Channel positions                : Front: L C R, Side: L R, LFE
Sampling rate                    : 48.0 KHz
Bit depth                        : 16 bits
Stream size                      : 338 MiB (21%)
Alignment                        : Aligned on interleaves
Interleave, duration             : 32 ms (0.77 video frame)
Interleave, preload duration     : 640 ms
Your Highness/Cover/Your Highness.jpg 79.895 KB
Your Highness/Cover/www.Film-Test.nl.JPG 36.286 KB
Your Highness/Your Highness.avi 1.685 GB
Gathering some info...

Register and log in Isohunt and see no captcha anymore!

4000 symbols left
Hash cee4ab51c0845707dfa892bd2af25853e358cf21

Related torrents for "Your Highness 2011 DVDrip English Klam"

Torrent search:

dvdrip english 2011