imdb
rating

6.8
Captain America: The First Avenger

Captain America: The First Avenger (2011)

Action, Adventure, Science Fiction

Full description

Captain America The First Avenger (eng) 2011 DivX-LBRT AC3-SIC

Size 1.006 GB   0 seeders     Added 2011-08-01 09:49:07

Stream torrent
Starting‥ You need BitLord! Get it from BitLord.com
To download or stream you need BitLord. Visit them at BitLord.com
Captain America The First Avenger

IMDb:-   http://www.imdb.com/title/tt0458339/  

-------------------------------------------------

Synopsis
--------------------

Meek U.S. Army soldier Steve Rogers (Chris Evans) 
takes part in an experimental military program that 
infuses him with super-human powers, and uses his 
newfound strength to battle the villainous Red Skull 
(Hugo Weaving) in this comic-book adventure from 
director Joe Johnston (The Wolfman, The Rocketeer). 
Tommy Lee Jones, Neal McDonough, and Stanley Tucci 
co-star in a film written by Christopher Markus and 
Stephen McFeeley (who previously collaborated on The 
Chronicles of Narnia: The Lion, the Witch, and the Wardrobe).

---------------------------------------------------

Captain America: The First Avenger (2011)

Release Date: 07/22/2011
    
Rating: PG-13
    
Runtime: 125 min
    
Genre: Action
    
Director: Joe Johnston
    
Cast: Chris Evans, Hayley Atwell, Hugo Weaving, Sebastian Stan

--------------------------------------------------------------

Quality details:

--------------------

Audio.....: English
Subtitles.: None
Format                           : AVI
Format/Info                      : Audio Video Interleave
File size                        : 690 MiB
Duration                         : 2h 5mn
Overall bit rate                 : 1 431 Kbps
Writing library                  : MPlayer


Video
ID                               : 0
Format                           : MPEG-4 Visual
Format profile                   : Advanced Simple@L5
Format settings, BVOP            : Yes
Format settings, QPel            : No
Format settings, GMC             : No warppoints
Format settings, Matrix          : Custom
Codec ID                         : XVID
Codec ID/Hint                    : XviD
Duration                         : 2h 5mn
Bit rate                         : 1 298 Kbps
Width                            : 680 pixels
Height                           : 372 pixels
Display aspect ratio             : 16:9
Frame rate                       : 25.000 fps
Color space                      : YUV
Chroma subsampling               : 4:2:0
Bit depth                        : 8 bits
Scan type                        : Progressive
Bits/(Pixel*Frame)               : 0.205
Stream size                      : 810 MiB (91%)
Writing library                  : XviD 1.2.1 (UTC 2008-12-04)

-------------------------------------

Audio
ID                               : 1
Format                           : AC-3
Format/Info                      : Audio Coding 3
Mode extension                   : CM (complete main)
Codec ID                         : 2000
Duration                         : 2h 5mn
Bit rate mode                    : Constant
Bit rate                         : 128 Kbps
Channel(s)                       : 2 channels
Channel positions                : Front: L R
Sampling rate                    : 48.0 KHz
Bit depth                        : 16 bits
Stream size                      : 79.8 MiB (9%)
Alignment                        : Aligned on interleaves
Interleave, duration             : 480 ms (12.00 video frames)
Interleave, preload duration     : 960 ms
Budget seedboxs.txt 44 B
Captain America The First Avenger (eng) 2011 DivX-LBRT AC3-SIC.avi 1.006 GB
dreamthe.net.txt 91 B
Gathering some info...

Register and log in Isohunt and see no captcha anymore!

4000 symbols left
Hash C0D40AE8680F90F900018EB0B4879324EBCEDBE9

Related torrents for "Captain America The First Avenger (eng) 2011 DivX-LBRT AC3-SIC"

Torrent search:

english 2011