imdb
rating

6.3
Cars 2

Cars 2 (2011)

Adventure, Animation, Comedy, Family

Full description
quality   dvdrip dvd telesync cam x264

Cars 2 2011 BDRiP XViD-PSiG

Size 1.015 GB   0 seeders     Added 2011-08-01 10:10:46

Stream torrent
Starting‥ You need BitLord! Get it from 1BitLord.com
To download or stream you need BitLord. Visit them at BitLord.com
Quality details:

--------------------

Audio.....: English
Subtitles.: None
Format                           : AVI
Format/Info                      : Audio Video Interleave
File size                        : 690 MiB
Duration                         : 2h 5mn
Overall bit rate                 : 1 431 Kbps
Writing library                  : MPlayer


Video
ID                               : 0
Format                           : MPEG-4 Visual
Format profile                   : Advanced Simple@L5
Format settings, BVOP            : Yes
Format settings, QPel            : No
Format settings, GMC             : No warppoints
Format settings, Matrix          : Custom
Codec ID                         : XVID
Codec ID/Hint                    : XviD
Duration                         : 2h 5mn
Bit rate                         : 1 298 Kbps
Width                            : 680 pixels
Height                           : 372 pixels
Display aspect ratio             : 16:9
Frame rate                       : 25.000 fps
Color space                      : YUV
Chroma subsampling               : 4:2:0
Bit depth                        : 8 bits
Scan type                        : Progressive
Bits/(Pixel*Frame)               : 0.205
Stream size                      : 810 MiB (91%)
Writing library                  : XviD 1.2.1 (UTC 2008-12-04)

-------------------------------------

Audio
ID                               : 1
Format                           : AC-3
Format/Info                      : Audio Coding 3
Mode extension                   : CM (complete main)
Codec ID                         : 2000
Duration                         : 2h 5mn
Bit rate mode                    : Constant
Bit rate                         : 128 Kbps
Channel(s)                       : 2 channels
Channel positions                : Front: L R
Sampling rate                    : 48.0 KHz
Bit depth                        : 16 bits
Stream size                      : 79.8 MiB (9%)
Alignment                        : Aligned on interleaves
Interleave, duration             : 480 ms (12.00 video frames)
Interleave, preload duration     : 960 ms
Budget seedboxs.txt 44 B
Cars 2 2011 BDRiP XViD-PSiG.avi 1.015 GB
dreamthe.net.txt 91 B
Gathering some info...

Register and log in Isohunt and see no captcha anymore!

4000 symbols left
Hash 6A9548FB412216E6794521B2D98D5F0D86ABCB69

Related torrents for "Cars 2 2011 BDRiP XViD-PSiG"

Torrent search:

bd 2011