imdb
rating

6.6
Friends with Benefits

Friends with Benefits (2011)

Comedy

Full description
quality   telesync dvdrip screener bd

Friends with Benefits 2011.BRRIP.XVID-WBZ

Size 1.005 GB   0 seeders     Added 2011-08-01 23:29:26

Stream torrent
Starting‥ You need BitLord! Get it from BitLord.com
To download or stream you need BitLord. Visit them at BitLord.com
Friends with Benefits (2011)
R  109 min  -  Comedy | Romance   -  22 July 2011 (USA)
    -/10  
(awaiting 5 votes) 9 reviews | Critics: 7 reviews Metascore: 66/100 (based on 7 reviews from Metacritic.com)

While trying to avoid the clichés of Hollywood romantic comedies, Dylan (Timberlake) and Jamie (Kunis) soon discover however that adding the act of sex to their friendship does lead to complications.

Director:
Will Gluck
Writers:
Keith Merryman (screenplay), David A. Newman (screenplay), and 4 more credits »
Stars:
Mila Kunis, Justin Timberlake and Patricia Clarkson 
--------------------------------------------------------------

Quality details:

--------------------

Audio.....: English
Subtitles.: None
Format                           : AVI
Format/Info                      : Audio Video Interleave
File size                        : 690 MiB
Duration                         : 2h 5mn
Overall bit rate                 : 1 431 Kbps
Writing library                  : MPlayer


Video
ID                               : 0
Format                           : MPEG-4 Visual
Format profile                   : Advanced Simple@L5
Format settings, BVOP            : Yes
Format settings, QPel            : No
Format settings, GMC             : No warppoints
Format settings, Matrix          : Custom
Codec ID                         : XVID
Codec ID/Hint                    : XviD
Duration                         : 2h 5mn
Bit rate                         : 1 298 Kbps
Width                            : 680 pixels
Height                           : 372 pixels
Display aspect ratio             : 16:9
Frame rate                       : 25.000 fps
Color space                      : YUV
Chroma subsampling               : 4:2:0
Bit depth                        : 8 bits
Scan type                        : Progressive
Bits/(Pixel*Frame)               : 0.205
Stream size                      : 810 MiB (91%)
Writing library                  : XviD 1.2.1 (UTC 2008-12-04)

-------------------------------------

Audio
ID                               : 1
Format                           : AC-3
Format/Info                      : Audio Coding 3
Mode extension                   : CM (complete main)
Codec ID                         : 2000
Duration                         : 2h 5mn
Bit rate mode                    : Constant
Bit rate                         : 128 Kbps
Channel(s)                       : 2 channels
Channel positions                : Front: L R
Sampling rate                    : 48.0 KHz
Bit depth                        : 16 bits
Stream size                      : 79.8 MiB (9%)
Alignment                        : Aligned on interleaves
Interleave, duration             : 480 ms (12.00 video frames)
Interleave, preload duration     : 960 ms
Friends with Benefits 2011.BRRIP.XVID-WBZ/Budget seedboxs.txt 44 B
Friends with Benefits 2011.BRRIP.XVID-WBZ/dreamthe.net.txt 91 B
Friends with Benefits 2011.BRRIP.XVID-WBZ/Friends with Benefits 2011.BRRIP.XVID-WBZ.avi 1.005 GB
Gathering some info...

Register and log in Isohunt and see no captcha anymore!

4000 symbols left
Hash 7640499563446b9a5b4ce2a7d4c4c1cabd5f4b30

Related torrents for "Friends with Benefits 2011.BRRIP.XVID-WBZ"

Torrent search:

bd 2011