Repeaters (2011) DVDRip x264-BBnRG 400MB

Size 441.964 MB   0 seeders     Added 2011-08-09 02:56:00

Stream torrent
Starting‚Ä• You need BitLord! Get it from BitLord.com
To download or stream you need BitLord. Visit them at BitLord.com
Cover Page image Screen Shorts image image image Complete name : Repeaters (2011) DVDRip x264-BBnRG Format : MPEG-4 Format profile : Base Media / Version 2 Codec ID : mp42 File size : 421 MiB Duration : 1h 29mn Overall bit rate : 660 Kbps Video ID : 1 Format : AVC Format/Info : Advanced Video Codec Format profile : Main@L2.1 Format settings, CABAC : Yes Format settings, ReFrames : 4 frames Format settings, GOP : M=3, N=21 Codec ID : avc1 Codec ID/Info : Advanced Video Coding Duration : 1h 29mn Bit rate mode : Variable Bit rate : 500 Kbps Width : 640 pixels Height : 272 pixels Display aspect ratio : 2.35:1 Frame rate mode : Variable Frame rate : 23.976 fps Minimum frame rate : 11.989 fps Maximum frame rate : 23.981 fps Color space : YUV Chroma subsampling : 4:2:0 Bit depth : 8 bits Scan type : Progressive Bits/(Pixel*Frame) : 0.120 Stream size : 316 MiB (75%) Writing library : x264 core 112 Audio ID : 2 Format : AAC Format/Info : Advanced Audio Codec Format profile : LC Codec ID : 40 Duration : 1h 29mn Bit rate mode : Variable Bit rate : 160 Kbps Maximum bit rate : 280 Kbps Channel(s) : 2 channels Channel positions : Front: L R Sampling rate : 48.0 KHz Compression mode : Lossy Stream size : 102 MiB (24%)
NFO.nfo 7.346 KB
Repeaters (2011) DVDRip x264-BBnRG.mp4 441.957 MB
Gathering some info...

Register and log in Isohunt and see no captcha anymore!

4000 symbols left
Hash 3D5E6ECB1C036963D889F1509453712EC8E6ABAA