imdb
rating

6.4
The Change-Up

The Change-Up (2011)

Comedy

Full description
quality   telesync bd cam x264 screener

The Change-up 2011 BRRiP XviD AC3-UnKnOwN

Size 1.554 GB   0 seeders     Added 2011-08-12 10:03:14

Stream torrent
Starting‥ You need BitLord! Get it from BitLord.com
To download or stream you need BitLord. Visit them at BitLord.com
::::::::: UnKnOwN Presents ::::::::::


:::: The Change-up 2011 BRRiP XviD AC3-UnKnOwN ::::


::NOTES::


Encoded By .......:UnKnOwN 
Release Date ......... 2011
Runtime ..........:1:57 
Source ......... MAX TORRENTZ
IMDb URL .........:http://www.imdb.com/title/tt1488555/
File Type ......... Single AVI
Language .........:English 
PS3 Compatible ....... Why dont You complain in comments and let me know(:
File Size ........:1.44gb 
Genre ......... Comedy


::Video::


ID: 0
Format: MPEG-4 Visual
Format profile: Advanced Simple@L5
Format settings, BVOP: Yes
Format settings, QPel: No
Format settings, GMC: No warppoints
Format settings, Matrix: Custom
Codec ID: XVID
Codec ID/Hint: XviD
Duration: 51h 57mn
Bit rate: 1 146 Kbps
Width: 660 pixels
Height: 274 pixels
Display aspect ratio: 2.40:1
Frame rate: 25.000 fps
Color space: YUV
Chroma subsampling: 4:2:0
Bit depth: 8 bits
Scan type: Progressive
Bits/(Pixel*Frame): 0.253
Stream size: 44.7 MiB (4%)
Writing library: XviD 1.2.1 (UTC 2008-12-04)


::Audio::


ID: 1
Format: MPEG Audio
Codec ID: 55
Codec ID/Hint: MP3
Duration: 1h 57mn
Bit rate: 128 Kbps
Channel(s): 2 channels
Sampling rate: 44.1 KHz
Stream size: 107 MiB (9%)
Alignment: Aligned on interleaves


::SYSPNOSIS::


A comedy in which a married father accidentally switches bodies with his best friend, leading to a series of wildly complex difficulties.


::RELEASE INFO::


Used the russian ts seems it has less of a flicker then the cam but colors 
were dead and had a lot of noise primarily focused on the dark scenes since majority of the movie is dark,fixed the colors,denoiser.smooth bla bla
On to audio is IMAGINES line not much syncing needed about 25 cuts,2 
Samples included.


::More Information::

 
image


::Screens::

 
imageg


ENJOY!		
Budget seedboxs.txt 44 B
dreamthe.net.txt 93 B
northernwarriors.net.txt 137 B
Gathering some info...

Register and log in Isohunt and see no captcha anymore!

4000 symbols left
Hash D79DC462BBCE298A3F0432D5D895B1D58BB0E1BC

Related torrents for "The Change-up 2011 BRRiP XviD AC3-UnKnOwN"

Torrent search:

bd 2011