imdb
rating

6.0
Mr. Popper's Penguins

Mr. Popper's Penguins (2011)

Comedy, Family

Full description

MNV Mister Poppers Pinguine 2011 German TS MD Xvid [mnvv2 info]

Size 1.555 GB   0 seeders     Added 2011-08-13 02:55:24

Stream torrent
Starting‥ You need BitLord! Get it from BitLord.com
10
To download or stream you need BitLord. Visit them at BitLord.com
Mister.Poppers.Pinguine.2011.German.TS.MD.Xvid-HOR\r\n\r\nFormat  :AVI\r\nFormat/Info  :Audio Video Interleave\r\nFile size  :1.41 GiB\r\nDuration  :1h 27mn\r\nOverall bit rate  :2314 Kbps\r\nWriting application  :Nandub v1.0rc2\r\nWriting library  :Nandub build 1853/release\r\n\r\nVideo\r\nID  :0Format  :MPEG-4 Visual\r\nFormat profile  :Advanced Simple@L5\r\nFormat settings, BVOP  :2Format settings, QPel  :No\r\nFormat settings, GMC  :No warppoints\r\nFormat settings, Matrix  :Default (MPEG)\r\nMuxing mode  :Packed bitstream\r\nCodec ID  :XVID\r\nCodec ID/Hint  :XviD\r\nDuration  :1h 27mn\r\nBit rate  :2109 Kbps\r\nWidth  :720 pixels\r\nHeight  :400 pixels\r\nDisplay aspect ratio  :16:9\r\nFrame rate  :25.000 fps\r\nColor space  :YUV\r\nChroma subsampling  :4:2:0\r\nBit depth  :8bits\r\nScan type  :Progressive\r\nCompression mode  :Lossy\r\nBits/(Pixel*Frame)  :0.293\r\nStream size  :1.29 GiB (91)\r\nWriting library  :XviD 61\r\n\r\nAudio\r\nID  :1Format  :MPEG Audio\r\nFormat version  :Version 1Format profile  :Layer 3Codec ID  :55\r\nCodec ID/Hint  :MP3\r\nDuration  :1h 27mn\r\nBit rate mode  :Variable\r\nBit rate  :192 Kbps\r\nChannel(s)  :2channels\r\nSampling rate  :44.1 KHz\r\nCompression mode  :Lossy\r\nDelay relative to video  :4ms\r\nStream size  :120 MiB (8)\r\nAlignment  :Aligned on interleaves\r\nInterleave, duration  :26 ms (0.65 video frame)\r\nInterleave, preload duration  :484 ms\r\nWriting library  :LAME3.98.4\r\n\r\nVideo :Mr.Poppers.Penguins.2011.TS.READNFO.XViD-IMAGiNE, Thanks\r\n\r\nAudio :Mr.Poppers.Pinguine.TS.MD.German.XviD-WTR, Thanks\r\n\r\nwww.imdb.com/title/tt1396218/\r\n\r\nMr. Popper ist ein erfolgreicher New Yorker Geschäftsmann, der mehr Zeit in sein\r\nLuxusapartment investiert als in sein Familienleben. Als sein Vater stirbt und ihm\r\neine geheimnisvolle Kiste vererbt, ändert sich alles schlagartig: Aus der Kiste\r\nentspringt ein Pinguin, der sich in Windeseile zu fünf weiteren Exemplaren vermehrt.\r\nIm Nu verwandelt sich Mr. Poppers gepflegtes Zuhause in einen chaotischen Spielplatz\r\nfür die tierischen Mitbewohner -zur großen Freude seiner Kinder, die sich auf Anhieb\r\nin die Pinguine verlieben.
HOR-pinguine.ts.md.xvid.avi 1.515 GB
HOR-pinguine.ts.md.xvid.nfo 3.02 KB
HOR-pinguine.ts.md.xvid.sample.avi 40.423 MB
Gathering some info...

Register and log in Isohunt and see no captcha anymore!

4000 symbols left
Hash C63B20DC04485C257500CB1EE732F421120D21B0

Related torrents for "MNV Mister Poppers Pinguine 2011 German TS MD Xvid [mnvv2 info]"

Torrent search:

german telesync 2011