Horror.Movie.2009.iTALiAN.MD.DVDRip.XviD-TNZLordM

Size 731.691 MB   0 seeders     Added 2011-08-17 01:35:31

Stream torrent
Starting‥ You need BitLord! Get it from BitLord.com
To download or stream you need BitLord. Visit them at BitLord.com
[img]image[/img]

[b]
Titolo originale: Horror Movie
Nazione: USA, Canada
Anno: 2009
Genere: Commedia, Horror
Durata: 108'
Regia: Bo Zenga
Sito ufficiale: www.stanhelsingthemovie.com
Sito italiano: www.horromovieilfilm.it

Cast: Steve Howey, Diora Baird, Kenan Thompson, Desi Lydic, Leslie Nielsen, Kit Zenga, Darren Moore, Twan Holliday, Ben Cotton, Travis MacDonald
Produzione: Helsing Releasing
Distribuzione: Eagle Pictures
Data di uscita: 17 Agosto 2011 (cinema)[/b]

[code]        General
        Complete name                    : Horror.Movie.2009.iTALiAN.MD.DVDRip.XviD-TNZ[LordM].avi
        Format                           : AVI
        Format/Info                      : Audio Video Interleave
        File size                        : 698 MiB
        Duration                         : 1h 30mn
        Overall bit rate                 : 1 079 Kbps
        Writing application              : VirtualDubMod 1.5.10.2 (build 2540/release)
        Writing library                  : VirtualDubMod build 2540/release

        Video
        ID                               : 0
        Format                           : MPEG-4 Visual
        Format profile                   : Advanced Simple@L5
        Format settings, BVOP            : 2
        Format settings, QPel            : No
        Format settings, GMC             : No warppoints
        Format settings, Matrix          : Default (H.263)
        Codec ID                         : XVID
        Codec ID/Hint                    : XviD
        Duration                         : 1h 30mn
        Bit rate                         : 947 Kbps
        Width                            : 672 pixels
        Height                           : 368 pixels
        Display aspect ratio             : 16:9
        Frame rate                       : 23.976 fps
        Color space                      : YUV
        Chroma subsampling               : 4:2:0
        Bit depth                        : 8 bits
        Scan type                        : Progressive
        Compression mode                 : Lossy
        Bits/(Pixel*Frame)               : 0.160
        Stream size                      : 613 MiB (88%)
        Writing library                  : XviD 1.2.1 (UTC 2008-12-04)

        Audio
        ID                               : 1
        Format                           : MPEG Audio
        Format version                   : Version 1
        Format profile                   : Layer 3
        Mode                             : Joint stereo
        Mode extension                   : MS Stereo
        Codec ID                         : 55
        Codec ID/Hint                    : MP3
        Duration                         : 1h 30mn
        Bit rate mode                    : Variable
        Bit rate                         : 119 Kbps
        Nominal bit rate                 : 128 Kbps
        Channel(s)                       : 2 channels
        Sampling rate                    : 48.0 KHz
        Compression mode                 : Lossy
        Stream size                      : 77.0 MiB (11%)
        Alignment                        : Aligned on interleaves
        Interleave, duration             : 24 ms (0.58 video frame)
        Interleave, preload duration     : 154 ms
        Writing library                  : LAME3.99a
        Encoding settings                : -m j -V 4 -q 3 -lowpass 17 --abr 128[/code]
Horror.Movie.2009.iTALiAN.MD.DVDRip.XviD-TNZ[LordM].avi 731.691 MB
Gathering some info...

Register and log in Isohunt and see no captcha anymore!

4000 symbols left
Hash C6E11D8D6518A2614A2565095172D5BEC6F5818D